<?xml version="1.0" standalone="no"?>
<!DOCTYPE svg PUBLIC "-//W3C//DTD SVG 1.1//EN" "http://www.w3.org/Graphics/SVG/1.1/DTD/svg11.dtd" >
<svg xmlns="http://www.w3.org/2000/svg" xmlns:xlink="http://www.w3.org/1999/xlink" version="1.1">
<metadata></metadata>
<defs>
<font id="titillium_webbold_italic" horiz-adv-x="1146" >
<font-face units-per-em="2048" ascent="1638" descent="-410" />
<missing-glyph horiz-adv-x="450" />
<glyph horiz-adv-x="0" />
<glyph unicode="&#xd;" horiz-adv-x="681" />
<glyph unicode=" "  horiz-adv-x="450" />
<glyph unicode="&#x09;" horiz-adv-x="450" />
<glyph unicode="&#xa0;" horiz-adv-x="450" />
<glyph unicode="!" horiz-adv-x="333" d="M29 0l71 313h279l-72 -313h-278zM158 528l194 906h293l-229 -906h-258z" />
<glyph unicode="&#x22;" horiz-adv-x="626" d="M223 895l119 514h256l-139 -514h-236zM567 895l119 514h256l-139 -514h-236z" />
<glyph unicode="#" d="M104 338l58 229h196l54 217h-197l57 230h197l84 338h238l-84 -338h213l84 338h237l-84 -338h197l-58 -230h-196l-53 -217h196l-57 -229h-197l-84 -338h-237l84 338h-213l-84 -338h-238l84 338h-197zM596 567h213l53 217h-213z" />
<glyph unicode="$" d="M180 57l45 199q106 -20 217 -33l168 375q-131 61 -185 135t-54 201q0 193 125 318.5t333 125.5q45 0 127 -8l95 209h176l-107 -240l127 -36l-51 -195q-80 12 -170 22l-160 -352q143 -66 191.5 -135.5t48.5 -198.5q0 -225 -139.5 -347t-372.5 -122q-33 0 -86 5l-100 -224 h-175l113 250zM612 215q106 4 160.5 49.5t54.5 147.5q0 41 -14 64.5t-59 49.5zM649 967q0 -43 14.5 -66.5t59.5 -52.5l133 297h-18q-88 0 -138.5 -49t-50.5 -129z" />
<glyph unicode="%" d="M221 12l869 1463l161 -62l-868 -1462zM293 1016q0 53 16 123q74 297 320 297q188 0 188 -176q0 -53 -16 -121q-74 -299 -320 -299q-188 0 -188 176zM494 1039.5q0 -35.5 27.5 -35.5t44 30.5t33.5 99t17 103.5t-27.5 35t-43 -29t-33.5 -98.5t-18 -105zM662 176 q0 53 16 123q73 297 319 297q188 0 189 -176q0 -53 -17 -121q-74 -299 -319 -299q-188 0 -188 176zM860 198.5q0 -34.5 27.5 -34.5t45 30.5t35 99t17.5 103.5t-27.5 35t-44 -29.5t-35 -99.5t-18.5 -104.5z" />
<glyph unicode="&#x26;" horiz-adv-x="1312" d="M129 340q0 170 99.5 285.5t301.5 197.5q-61 106 -61 219q0 190 113 282.5t299 92.5q360 0 360 -309q0 -145 -74.5 -229t-285.5 -168l155 -209q25 37 58.5 117.5t42.5 130.5h252q-23 -92 -89.5 -224.5t-123.5 -199.5l163 -191l-190 -164l-148 189q-190 -184 -438 -184.5 t-341 97t-93 267.5zM414 367q-1 -158 194 -158q66 0 142.5 36t119.5 79l-241 342q-215 -100 -215 -299zM743 1012q0 -90 41 -154q113 59 148 104.5t35 120.5q0 105 -90 105q-133 0 -134 -176z" />
<glyph unicode="'" horiz-adv-x="282" d="M223 895l119 514h256l-139 -514h-236z" />
<glyph unicode="(" horiz-adv-x="479" d="M104 270q0 182 50.5 379t119.5 346q152 322 263 471l51 66h256q-59 -88 -146.5 -255t-146.5 -310.5t-108.5 -338t-49.5 -339.5q0 -274 25 -473l8 -68h-262q-59 199 -60 522z" />
<glyph unicode=")" horiz-adv-x="481" d="M-66 -242q59 88 146.5 255t147 310.5t108.5 338t49 339.5q0 274 -25 474l-8 67h262q59 -199 60 -522q0 -182 -50.5 -379t-119.5 -346q-152 -322 -262 -471l-52 -66h-256z" />
<glyph unicode="*" horiz-adv-x="866" d="M332 938l215 160l-209 149l94 129l207 -149l80 248l153 -52l-77 -249h252v-152h-252l77 -246l-149 -45l-84 248l-211 -162z" />
<glyph unicode="+" d="M219 391v246h346v344h246v-344h350v-246h-350v-348h-246v348h-346z" />
<glyph unicode="," horiz-adv-x="358" d="M-109 -266l240 579h301l-313 -579h-228z" />
<glyph unicode="-" horiz-adv-x="546" d="M109 420l61 246h518l-61 -246h-518z" />
<glyph unicode="." horiz-adv-x="311" d="M16 0l72 313h279l-72 -313h-279z" />
<glyph unicode="/" horiz-adv-x="958" d="M76 41l882 1429l259 -90l-883 -1429z" />
<glyph unicode="0" d="M195 409.5q0 434.5 177 700.5t449 266q442 0 442.5 -434t-177 -700.5t-449.5 -266.5q-442 0 -442 434.5zM483 461q0 -135 34 -189.5t128 -54.5t173 114.5t118 268.5t39 289t-34 190.5t-129 55.5t-174 -115t-117 -269.5t-38 -289.5z" />
<glyph unicode="1" d="M397 1057l523 295h243l-311 -1352h-281l236 1020l-334 -184z" />
<glyph unicode="2" d="M129 0l55 229l408 355q196 170 274 257t78 159.5t-42 103.5t-132 31q-135 0 -299 -25l-51 -6l37 205q197 68 388 67.5t289.5 -76t98.5 -241.5t-83 -280.5t-265 -254.5l-373 -282h547l-60 -242h-870z" />
<glyph unicode="3" d="M121 49l59 193q233 -25 360.5 -25t205 60.5t77.5 166.5q0 59 -37.5 85t-138.5 28l-258 4l51 209l265 12q80 4 157.5 72t77.5 154q0 127 -184 127q-156 0 -297 -21l-53 -6l28 184q182 84 390 84t306.5 -69.5t98.5 -216t-54.5 -228.5t-191.5 -151q74 -43 101.5 -95.5 t27.5 -158.5q0 -215 -159.5 -348.5t-422.5 -133.5q-90 0 -192 18.5t-160 37.5z" />
<glyph unicode="4" d="M143 229l47 205l566 918h307l-571 -889h276l84 364h278l-83 -364h124l-55 -234h-123l-55 -239h-279l56 239h-572z" />
<glyph unicode="5" d="M127 63l63 213q238 -59 373 -59t215 74t80 164t-37 124.5t-102 34.5q-117 0 -203 -32l-31 -11l-204 47l227 736h805l-56 -242h-581l-121 -319q146 63 236 63q356 0 356 -328q0 -242 -153.5 -397.5t-385.5 -155.5q-106 0 -227 21.5t-188 44.5z" />
<glyph unicode="6" d="M203 457q0 156 52 315.5t145.5 295.5t242 222t324.5 86q135 0 290 -33l54 -12l-88 -227q-160 31 -322 31q-236 0 -354 -336q164 72 276 71q371 0 371 -356q0 -244 -144.5 -391.5t-410.5 -147.5q-205 0 -320.5 120t-115.5 362zM492 428q0 -74 39.5 -142.5t125.5 -68.5 q121 0 184.5 68.5t63.5 201.5q0 142 -166 142q-115 0 -200 -37l-29 -12q-18 -78 -18 -152z" />
<glyph unicode="7" d="M240 37l710 989l17 84h-564l56 242h844l-82 -355l-725 -1034z" />
<glyph unicode="8" d="M133 315q0 203 266 381q-43 43 -63.5 84t-21.5 58.5t-1 60.5q0 193 161 336t429 143q193 0 298.5 -78.5t105.5 -193.5q0 -152 -58.5 -241t-177.5 -169q106 -80 107 -252q0 -207 -183.5 -340t-425 -133t-339 86t-97.5 258zM438 359.5q0 -74.5 40 -110.5t143.5 -36 t181.5 67.5t78 151.5q0 51 -18.5 80t-69.5 51h-181q-74 -27 -124 -78t-50 -125.5zM602 932q0 -49 13.5 -75t54.5 -60h180q61 35 107.5 92t46.5 113.5t-40 95.5t-129.5 39t-161 -64.5t-71.5 -140.5z" />
<glyph unicode="9" d="M162 20l86 244q119 -31 266.5 -31t253.5 85t141 225l-53 -13q-182 -41 -250 -41q-176 0 -263 86.5t-87 276.5q0 184 141 344q70 80 190 130t269 50q195 0 289 -136t94 -380q0 -414 -225.5 -649.5t-548.5 -235.5q-135 0 -260 33zM530 891q0 -94 37 -123t107 -29 q131 0 250 23l43 8q12 68 12 123q0 227 -184 227q-106 0 -185.5 -67.5t-79.5 -161.5z" />
<glyph unicode=":" horiz-adv-x="323" d="M20 0l72 313h279l-72 -313h-279zM164 606l72 314h278l-72 -314h-278z" />
<glyph unicode=";" horiz-adv-x="358" d="M-111 -266l240 579h301l-313 -579h-228zM195 606l71 314h279l-72 -314h-278z" />
<glyph unicode="&#x3c;" d="M233 401v226l832 374v-278l-535 -203l535 -221v-279z" />
<glyph unicode="=" d="M238 178v248h909v-248h-909zM238 604v248h909v-248h-909z" />
<glyph unicode="&#x3e;" d="M317 20v279l535 221l-535 203v278l832 -374v-226z" />
<glyph unicode="?" horiz-adv-x="882" d="M246 0l78 344h278l-78 -344h-278zM336 1147l29 215q184 55 327 55q377 0 377 -319q0 -139 -65.5 -228.5t-243.5 -212.5q-111 -76 -127 -149l-19 -82h-258q0 100 17.5 192.5t191.5 217.5q121 84 167 132t46 106.5t-35.5 77.5t-107.5 19q-135 0 -258 -18z" />
<glyph unicode="@" horiz-adv-x="1964" d="M158 269.5q0 144.5 28 285.5q119 498 389 716t725 218q209 0 365 -47q289 -84 379 -320q45 -113 45 -239.5t-41 -278.5q-88 -338 -205 -481t-301 -143t-244 90q-68 -33 -184.5 -64t-209.5 -31t-159.5 49.5t-91.5 125.5q-33 98 -32.5 188t18.5 158q111 553 516 553 q98 0 500 -68q-135 -590 -146 -674q-8 -68 82 -67q59 0 106.5 87t88.5 251q51 199 51 276.5t-20.5 153t-81.5 131.5q-137 121 -478.5 121t-538 -180.5t-278.5 -524.5q-27 -115 -26.5 -204t15.5 -167t60.5 -147.5t114.5 -122.5q145 -109 414 -109l280 19l-53 -227 q-199 -20 -291 -21q-190 0 -341.5 54.5t-245 147.5t-150.5 218q-59 129 -59 273.5zM897 373q0 -162 86 -164h6q117 0 244 78q8 82 106 499q-131 29 -186 29q-166 0 -238 -319q-18 -76 -18 -123z" />
<glyph unicode="A" horiz-adv-x="1128" d="M27 0l626 1393h488l-43 -1393h-283l8 242h-405l-109 -242h-282zM524 487h310l28 660h-43z" />
<glyph unicode="B" horiz-adv-x="1173" d="M133 0l322 1393h483q365 0 365 -301q0 -133 -57.5 -219.5t-172.5 -155.5q80 -47 106.5 -102.5t26.5 -139.5q0 -205 -142 -340t-407 -135h-524zM471 242h242q92 0 147 63.5t55 163.5q0 115 -133 115h-231zM604 819h211q84 0 141.5 60.5t57.5 154.5q0 117 -121 117h-211z " />
<glyph unicode="C" horiz-adv-x="1011" d="M203 379q0 299 100 551q55 139 135 246.5t204 174t278 66.5q150 0 301 -45l49 -16l-66 -209q-122 24 -282 24h-13q-127 0 -224 -112.5t-144 -286.5t-47 -373q0 -178 165 -178q158 0 285 21l47 6l-22 -219q-190 -54 -346 -54q-420 0 -420 404z" />
<glyph unicode="D" horiz-adv-x="1239" d="M133 0l322 1393h438q459 0 459 -424q0 -299 -111 -541q-125 -270 -342 -371q-121 -57 -266 -57h-500zM473 246h184q104 0 186.5 75.5t127.5 191.5t67.5 233.5t22.5 219t-56.5 141.5t-168.5 40h-156z" />
<glyph unicode="E" horiz-adv-x="1017" d="M133 0l320 1393h817l-58 -246h-532l-76 -328h422l-57 -246h-420l-76 -327h535l-56 -246h-819z" />
<glyph unicode="F" horiz-adv-x="976" d="M133 0l322 1393h802l-57 -246h-520l-96 -420h430l-60 -246h-428l-110 -481h-283z" />
<glyph unicode="G" horiz-adv-x="1163" d="M209 414q0 332 115 577q125 270 356 373q123 53 248 53t231.5 -20.5t163.5 -40.5l55 -21l-65 -205q-203 41 -383 41q-111 0 -198 -72.5t-134 -189.5q-98 -236 -98 -497q0 -190 205 -191l129 10l71 310h-131l55 233h412l-174 -745q-139 -54 -397 -54q-461 0 -461 439z" />
<glyph unicode="H" horiz-adv-x="1269" d="M133 0l322 1393h282l-129 -557h439l129 557h282l-321 -1393h-283l135 590h-438l-135 -590h-283z" />
<glyph unicode="I" horiz-adv-x="548" d="M133 0l322 1393h282l-321 -1393h-283z" />
<glyph unicode="J" horiz-adv-x="579" d="M12 -141l47 245q86 4 117 31t57 141l259 1117h282l-258 -1117q-47 -207 -110 -307q-33 -51 -89 -71q-104 -39 -305 -39z" />
<glyph unicode="K" horiz-adv-x="1105" d="M133 0l322 1393h282l-139 -602l131 16l361 586h309l-445 -699l129 -694h-297l-90 559l-155 -14l-125 -545h-283z" />
<glyph unicode="L" horiz-adv-x="864" d="M133 0l322 1393h282l-264 -1147h440l-55 -246h-725z" />
<glyph unicode="M" horiz-adv-x="1615" d="M133 0l322 1393h438l2 -1014l463 1014h446l-321 -1393h-283l266 1147h-12l-498 -1086h-266l-2 1086h-10l-262 -1147h-283z" />
<glyph unicode="N" horiz-adv-x="1333" d="M133 0l322 1393h448l74 -1092h24l248 1092h273l-322 -1393h-426l-90 1112h-25l-260 -1112h-266z" />
<glyph unicode="O" horiz-adv-x="1259" d="M289 907q82 238 239.5 374t389.5 136q452 0 452 -424v-2q0 -280 -84 -523t-244.5 -368t-382.5 -125q-452 0 -452 424q0 270 82 508zM498 459.5q0 -142.5 44 -190.5t149.5 -48t174.5 70q96 96 154.5 290.5t58.5 381.5q0 113 -43 160.5t-149.5 47.5t-167.5 -61 q-102 -100 -161.5 -304t-59.5 -346.5z" />
<glyph unicode="P" horiz-adv-x="1120" d="M133 0l322 1393h401q227 0 328.5 -93.5t101.5 -300.5q0 -293 -160.5 -445.5t-443.5 -152.5h-174l-92 -401h-283zM565 647h154q129 0 202.5 91t73.5 257q0 78 -36.5 115t-122.5 37h-156z" />
<glyph unicode="Q" horiz-adv-x="1259" d="M207 401q0 268 82 506t239.5 374t389.5 136q452 0 452 -424q0 -283 -84 -525.5t-252 -373.5q-45 -33 -69 -45l98 -276l-268 -88l-88 295q-42 -5 -62 -5q-209 0 -323.5 105.5t-114.5 320.5zM498 459.5q0 -142.5 44 -190.5t149.5 -48t174.5 70q96 96 154.5 290.5 t58.5 381.5q0 113 -43 160.5t-149.5 47.5t-167.5 -61q-102 -100 -161.5 -304t-59.5 -346.5z" />
<glyph unicode="R" horiz-adv-x="1144" d="M133 0l322 1393h401q221 0 325.5 -93.5t104.5 -294t-88 -335.5t-223 -189l112 -481h-282l-92 442h-195l-102 -442h-283zM573 684h183q110 0 174.5 88t64.5 194.5t-34.5 145.5t-120.5 39h-158z" />
<glyph unicode="S" horiz-adv-x="1013" d="M102 59l48 203q231 -41 363 -41t193.5 46t61.5 157q0 59 -36 91t-175 95.5t-198.5 139t-59.5 211.5q0 199 129 327.5t344 128.5q98 0 205.5 -19.5t165.5 -37.5l57 -21l-51 -200q-226 37 -369 37q-90 0 -142 -50.5t-52 -120t32.5 -101.5t180 -97.5t202 -138t54.5 -211.5 q0 -231 -142.5 -356.5t-384.5 -125.5q-96 0 -202.5 20.5t-165.5 41.5z" />
<glyph unicode="T" horiz-adv-x="933" d="M283 1147l57 246h897l-57 -246h-310l-264 -1147h-282l264 1147h-305z" />
<glyph unicode="U" horiz-adv-x="1218" d="M211 291q0 106 27 227l202 875h283l-213 -920q-18 -78 -18 -140.5t41.5 -87t147 -24.5t159 56.5t84.5 195.5l213 920h282l-213 -920q-59 -262 -193 -380t-356 -118q-446 0 -446 316z" />
<glyph unicode="V" horiz-adv-x="1136" d="M319 0l29 1393h283l-49 -1147h67l500 1147h283l-631 -1393h-482z" />
<glyph unicode="W" horiz-adv-x="1771" d="M293 0l63 1393h283l-86 -1133h29l462 1112h312l-68 -1112h29l459 1133h282l-596 -1393h-409l67 1012l-405 -1012h-422z" />
<glyph unicode="X" horiz-adv-x="1064" d="M2 0l524 702l-184 691h299l100 -490l336 490h297l-512 -693l193 -700h-297l-113 498l-346 -498h-297z" />
<glyph unicode="Y" horiz-adv-x="1032" d="M324 1393h286l99 -543l346 543h299l-574 -803l-139 -590h-262l139 602z" />
<glyph unicode="Z" horiz-adv-x="1003" d="M74 0l63 281l719 817l10 49h-528l57 246h856l-65 -285l-723 -813l-12 -49h536l-57 -246h-856z" />
<glyph unicode="[" horiz-adv-x="503" d="M-31 -250l414 1780h469l-57 -234h-181l-305 -1312h180l-57 -234h-463z" />
<glyph unicode="\" horiz-adv-x="991" d="M381 1438h287l270 -1438h-285z" />
<glyph unicode="]" horiz-adv-x="501" d="M-53 -250l57 234h180l305 1312h-180l58 234h462l-413 -1780h-469z" />
<glyph unicode="^" d="M113 641l397 711h233l398 -711h-287l-223 444l-232 -444h-286z" />
<glyph unicode="_" horiz-adv-x="978" d="M-66 -420l58 256h917l-57 -256h-918z" />
<glyph unicode="`" horiz-adv-x="1060" d="M500 1356l131 225l452 -184l-114 -203z" />
<glyph unicode="a" horiz-adv-x="1081" d="M164 348q0 236 119 453q59 109 163.5 178.5t237.5 69.5q141 0 418 -50l94 -18l-154 -662l-55 -313l-272 -10q18 125 26 160q-84 -113 -196 -160q-47 -21 -92 -21q-150 0 -219.5 101.5t-69.5 271.5zM442 348q0 -72 22.5 -105.5t71 -33.5t109 45t100.5 90l41 47l95 395 q-136 29 -189 29q-78 0 -137 -80q-113 -152 -113 -387z" />
<glyph unicode="b" horiz-adv-x="1079" d="M119 45l319 1389h275l-113 -490q47 41 118 73t126 32q166 0 236.5 -95.5t70.5 -238.5q0 -322 -143.5 -530t-389.5 -208q-98 0 -223 16.5t-200 35.5zM436 231q90 -20 167 -20t130 51t82 129q55 158 55 291t-108 133q-41 0 -94.5 -25.5t-85.5 -52.5l-35 -24z" />
<glyph unicode="c" horiz-adv-x="837" d="M168 332q0 313 138 515t396 202q123 0 261 -50l45 -14l-70 -201q-158 27 -248 27q-117 0 -180.5 -128t-63.5 -299t156 -171l219 16l-22 -202q-149 -51 -299 -51q-1 0 -2 -1q-148 1 -239 95t-91 262z" />
<glyph unicode="d" horiz-adv-x="1081" d="M164 338q0 174 56 331.5t177 267.5t283 110q70 0 205 -33l41 -10l100 430h274l-331 -1434h-267l19 106q-41 -47 -118.5 -89t-143.5 -42q-145 0 -220 94.5t-75 268.5zM442 340q0 -131 105 -131q33 0 91 37t99 73l41 37l99 428q-119 29 -194 29t-131 -81t-83 -187.5 t-27 -204.5z" />
<glyph unicode="e" horiz-adv-x="974" d="M166 305q0 162 32.5 289t97 229.5t176.5 163t255 60.5q358 0 358 -306q0 -195 -131 -268.5t-436 -73.5h-72q-6 -25 -6 -77t42 -82.5t106 -30.5q141 0 289 20l53 7l-31 -203q-191 -57 -377 -57q-1 0 -2 -1q-185 0 -269 84q-85 84 -85 246zM477 602h84q141 0 197.5 31 t56.5 104q0 88 -102 88q-182 0 -236 -223z" />
<glyph unicode="f" horiz-adv-x="671" d="M53 -432l287 1218h-94l57 238h88l10 41q49 215 128 304t245 89q80 0 168 -37l27 -10l-49 -201q-72 14 -126 14q-1 1 -2 1q-53 0 -74 -40q-22 -40 -42 -122l-10 -39h215l-58 -233h-209l-184 -791l-129 -432h-248z" />
<glyph unicode="g" horiz-adv-x="991" d="M18 -190q0 96 69 158.5t181 117.5q-41 41 -41 95.5t31 103.5t61 77l31 29q-139 82 -139 256t116.5 288t307.5 114q88 0 209 -29l39 -8l299 12l-52 -221h-118q8 -45 8 -105q0 -158 -122 -267t-306 -109l-88 10q-31 -41 -31 -70t39 -41t154 -28q290 -43 290 -258 q0 -183 -132 -294.5t-361 -111.5q-444 0 -445 281zM268 -133q0 -43 45 -76t144 -33q241 0 241 143q0 28 -19.5 44t-44 22t-130 23.5t-119.5 21.5q-41 -22 -79 -62t-38 -83zM463 659q0 -114 143 -114q72 0 117 48t45 118q0 114 -141 114h-2q-72 0 -117 -47t-45 -119z" />
<glyph unicode="h" horiz-adv-x="1050" d="M113 0l329 1434h275l-115 -506q45 45 121 83t135 38q250 0 250 -289q0 -74 -43 -258l-115 -502h-274l110 481q37 154 37 214.5t-15 88t-54 27.5q-70 0 -174 -92l-35 -31l-158 -688h-274z" />
<glyph unicode="i" horiz-adv-x="497" d="M113 0l235 1024h275l-236 -1024h-274zM371 1130l65 281h277l-64 -281h-278z" />
<glyph unicode="j" horiz-adv-x="497" d="M-143 -252q158 82 195.5 120t60.5 132l235 1024h275l-236 -1024q-18 -82 -29.5 -123t-36 -89t-47 -71.5t-73.5 -56.5q-70 -49 -258 -131zM367 1112l65 281h277l-64 -281h-278z" />
<glyph unicode="k" horiz-adv-x="956" d="M113 0l329 1434h275l-185 -797l70 14l260 371h301l-356 -492l135 -530h-280l-99 424l-82 -12l-94 -412h-274z" />
<glyph unicode="l" horiz-adv-x="499" d="M113 0l329 1434h275l-330 -1434h-274z" />
<glyph unicode="m" horiz-adv-x="1589" d="M113 0l235 1024h262l-10 -98q78 78 182 110q42 12 102 12q1 0 2 1q60 0 112 -37q54 -37 67 -74l14 -35q18 16 49 41t116 65t155 40q246 0 246 -289q0 -92 -39 -258l-115 -502h-274l114 481q37 154 37 211.5t-16.5 88t-54 30.5t-88 -29.5t-83.5 -60.5l-32 -29 q-14 -123 -31 -190l-115 -502h-274l110 481q37 154 37 213.5t-17.5 88t-55.5 28.5q-68 0 -170 -92l-33 -31l-158 -688h-274z" />
<glyph unicode="n" horiz-adv-x="1050" d="M113 0l235 1024h262l-12 -100q47 47 124 86t136 39q250 0 250 -289q0 -74 -43 -258l-115 -502h-274l110 481q37 154 37 214.5t-15 88t-56 27.5q-72 0 -174 -92l-33 -31l-158 -688h-274z" />
<glyph unicode="o" horiz-adv-x="1015" d="M164 362q0 164 59.5 318t181 260.5t277.5 106.5q403 0 403 -388q0 -166 -55 -317.5t-177 -259t-286 -107.5q-403 0 -403 387zM436 358q0 -149 131 -149q111 0 178.5 140t67.5 315q0 149 -129 149h-2q-111 0 -178.5 -140.5t-67.5 -314.5z" />
<glyph unicode="p" horiz-adv-x="1079" d="M14 -430l334 1454h268l-20 -106q51 51 126 91t134 40q150 0 223.5 -95.5t73.5 -264.5t-56.5 -329.5t-177 -271.5t-282.5 -111q-92 0 -207 31l-41 12l-104 -450h-271zM440 240q119 -29 194 -29t131 81t82.5 187.5t26.5 204.5q0 131 -104 131q-33 0 -91 -37t-99 -73 l-41 -37z" />
<glyph unicode="q" horiz-adv-x="1077" d="M164 338q0 174 58.5 335t179 267.5t278.5 106.5q143 0 424 -52l90 -16l-324 -1409h-274l125 539q-12 -14 -35.5 -37t-92 -60t-134.5 -37q-143 0 -219 94.5t-76 268.5zM442 340q0 -131 105 -131q33 0 91 37t99 73l41 37l99 428q-121 29 -199 29q-100 0 -168 -152.5 t-68 -320.5z" />
<glyph unicode="r" horiz-adv-x="684" d="M113 0l235 1024h273l-37 -147q61 55 157.5 109t163.5 63l-80 -287q-98 -31 -239 -94l-49 -23l-150 -645h-274z" />
<glyph unicode="s" horiz-adv-x="884" d="M94 45l51 201q197 -37 340.5 -37t143.5 100q0 27 -29 42.5t-98 35.5q-145 41 -215 96.5t-70 157.5q0 190 125 298t301 108q96 0 188.5 -15.5t135.5 -32.5l45 -16l-49 -203q-212 33 -345 33q-61 0 -93.5 -28.5t-32.5 -66.5t28.5 -56.5t148 -55.5t180 -85t60.5 -156 q0 -193 -126 -291.5t-334 -98.5q-88 0 -177.5 17.5t-132.5 36.5z" />
<glyph unicode="t" horiz-adv-x="673" d="M203 190q0 89 30 216l91 385h-111l61 233h105l59 262h275l-60 -262h215l-57 -233h-213l-94 -410q-17 -70 -17 -115q0 -57 60 -56l139 9l-22 -196q-108 -47 -224 -47q-1 0 -2 -1q-114 1 -174 63t-61 152z" />
<glyph unicode="u" horiz-adv-x="1050" d="M178 264q0 80 43 258l115 502h274l-110 -481q-37 -154 -37 -213.5t17.5 -88t56.5 -28.5q70 0 172 92l32 31l158 688h275l-236 -1024h-262l12 100q-47 -47 -124 -86t-136 -39q-250 0 -250 289z" />
<glyph unicode="v" horiz-adv-x="948" d="M250 0l8 1024h268l-28 -797h37l350 797h276l-481 -1024h-430z" />
<glyph unicode="w" horiz-adv-x="1560" d="M217 0l59 1024h277l-66 -791h48l325 771h311l-41 -771h48l305 791h276l-418 -1024h-456l39 637l-258 -637h-449z" />
<glyph unicode="x" horiz-adv-x="880" d="M12 0l402 512l-160 512h278l80 -313l213 313h279l-404 -532l164 -492h-278l-80 301l-209 -301h-285z" />
<glyph unicode="y" horiz-adv-x="950" d="M209 -430l211 430h-170l8 1024h268l-28 -797h30l357 797h276l-680 -1454h-272z" />
<glyph unicode="z" horiz-adv-x="847" d="M70 0l51 229l514 562h-385l59 233h707l-58 -227l-516 -564h394l-60 -233h-706z" />
<glyph unicode="{" horiz-adv-x="589" d="M129 563l49 195q125 33 165 68.5t58 109.5l60 299q51 172 159.5 241.5t317.5 77.5l-45 -235q-84 -8 -125 -45t-57 -103l-49 -258q-29 -117 -83.5 -176t-160.5 -96q125 -70 125 -176q0 -55 -46 -211t-46 -193q0 -98 118 -98l-63 -235q-150 0 -238 67.5t-88 188.5 q0 43 43 203.5t43 201.5q0 102 -137 174z" />
<glyph unicode="|" horiz-adv-x="686" d="M322 -430v1864h274v-1864h-274z" />
<glyph unicode="}" horiz-adv-x="587" d="M-55 -279l45 236q84 8 125 45t57 102l49 258q29 117 83.5 176.5t160.5 96.5q-125 70 -125 176q0 55 46 211t46 192q0 98 -119 99l64 235q150 0 237.5 -67.5t87.5 -188.5q0 -43 -43 -203.5t-43 -201.5q0 -102 138 -174l-49 -195q-125 -33 -165 -68.5t-59 -109.5l-59 -299 q-51 -172 -159.5 -241.5t-317.5 -78.5z" />
<glyph unicode="~" d="M246 578q129 106 252 106q57 0 212.5 -45t196.5 -45q76 0 180 57l35 21l17 -219q-39 -39 -107.5 -72t-126 -33t-219.5 45t-201 45t-95 -20.5t-91 -40.5l-33 -19z" />
<glyph unicode="&#xa1;" horiz-adv-x="329" d="M-76 -410l230 906h258l-195 -906h-293zM190 711l72 313h279l-72 -313h-279z" />
<glyph unicode="&#xa2;" d="M299 407.5q0 38.5 18 104.5q53 211 172 323.5t287 122.5l47 209h221l-53 -215l144 -20l-70 -230q-145 6 -242.5 6.5t-156 -43.5t-86.5 -153q-10 -45 -10.5 -85t20.5 -67q37 -47 168 -47l221 9l-43 -230q-76 -12 -154 -18l-51 -226h-217l47 211q-90 6 -151.5 49.5t-84 107 t-24.5 108.5t-2 83.5z" />
<glyph unicode="&#xa3;" d="M154 0l53 233h194l101 441h-164l55 233h162l18 74q57 225 146.5 317.5t265.5 92.5q84 0 244 -39l49 -13l-64 -206q-129 16 -205.5 16t-106.5 -45t-56 -156l-10 -41h321l-55 -233h-320l-102 -441h188l140 37l-7 -235l-151 -35h-696z" />
<glyph unicode="&#xa4;" d="M182 193l150 149q-41 86 -41 173t41 175l-150 150l189 188l149 -149q86 41 173 41t175 -41l150 149l188 -188l-149 -150q41 -88 41 -175t-41 -173l149 -149l-188 -189l-150 150q-88 -43 -175 -43t-173 43l-149 -150zM541 516.5q0 -63.5 45 -109t108.5 -45.5t108.5 45.5 t45 109t-45 108.5t-108.5 45t-108.5 -45t-45 -108.5z" />
<glyph unicode="&#xa5;" d="M211 256l57 242h297l10 45l-6 22h-284l53 242h143l-221 545h305l201 -473l364 473h365l-438 -545h145l-57 -242h-271l-18 -22l-12 -45h286l-55 -242h-287l-59 -256h-280l61 256h-299z" />
<glyph unicode="&#xa6;" horiz-adv-x="686" d="M322 348h274v-778h-274v778zM322 672v762h274v-762h-274z" />
<glyph unicode="&#xa7;" horiz-adv-x="997" d="M33 -340l78 227q203 -29 304 -28.5t161.5 33t60.5 90.5q0 47 -35 69q-14 10 -92 32.5t-111 33.5q-129 41 -184 101.5t-55 154.5q0 190 196 336q-41 37 -41 168q0 137 127 274q59 68 164 111t197 43q156 0 309 -37l51 -13l-61 -227q-213 33 -310.5 33t-154.5 -34t-57 -95 q0 -39 21.5 -54.5t33.5 -22.5t39.5 -15.5t42.5 -12.5q31 -10 94 -22q238 -57 238 -260q0 -59 -34 -129t-63.5 -108t-81.5 -97q35 -55 35 -109.5t-8 -105.5t-41 -123t-86 -126t-153.5 -93t-198.5 -39q-156 0 -328 33zM440 458.5q0 -22.5 1 -28.5t3 -10t7 -8 q16 -16 32.5 -22.5t21.5 -8.5t14 -6t21.5 -9.5t69 -26t80.5 -30.5q23 23 48.5 80t25.5 93t-29.5 57.5t-118 44t-106.5 32.5q-21 -24 -45.5 -79.5t-24.5 -78z" />
<glyph unicode="&#xa8;" horiz-adv-x="1052" d="M440 1231l64 276h227l-65 -276h-226zM838 1231l63 276h227l-65 -276h-225z" />
<glyph unicode="&#xa9;" horiz-adv-x="1312" d="M297 892q0 249 159.5 413.5t408.5 164.5t404.5 -168.5t155.5 -416.5t-155.5 -413t-403.5 -165t-408.5 168t-160.5 417zM424 888.5q0 -190.5 125 -324.5t312.5 -134t312 133t124.5 323.5t-125.5 326t-311 135.5t-311.5 -134.5t-126 -325zM616 889.5q0 191.5 62.5 263.5 t208.5 72q80 0 145 -25l19 -6l-15 -176q-72 12 -125 12t-68.5 -28.5t-15.5 -102.5q0 -154 72 -154l137 11l15 -168q-57 -37 -185.5 -37t-189 73.5t-60.5 265z" />
<glyph unicode="&#xaa;" horiz-adv-x="673" d="M197 786q0 162 102 234q70 49 209 55l131 6l12 45q4 31 -80 31l-272 -14l29 153q158 53 309 53.5t217 -51.5q45 -33 45 -106q0 -35 -10 -78l-66 -289q12 -12 33 -16l-43 -168q-139 0 -183.5 15.5t-60.5 52.5q-102 -66 -202.5 -66t-143.5 62q-27 37 -26 81zM436 864 q0 -41 53 -41q35 0 101 33l16 82l-90 -6q-80 -7 -80 -68z" />
<glyph unicode="&#xab;" horiz-adv-x="987" d="M109 434l47 125l512 334l-76 -268l-232 -133l164 -158l-67 -246zM621 434l47 125l512 334l-76 -268l-232 -133l164 -158l-67 -246z" />
<glyph unicode="&#xac;" d="M231 487v246h893v-520h-245v274h-648z" />
<glyph unicode="&#xad;" horiz-adv-x="546" d="M109 420l61 246h518l-61 -246h-518z" />
<glyph unicode="&#xae;" horiz-adv-x="1312" d="M297 891q0 250 159.5 414.5t407.5 164.5t404.5 -168.5t156.5 -416.5t-154.5 -413t-403.5 -165t-409.5 167t-160.5 417zM424 888.5q0 -188.5 127 -323.5t312.5 -135t310 134t124.5 323.5t-125.5 325t-311 135.5t-311.5 -135.5t-126 -324zM614 565v645h279q106 0 169.5 -52 t63.5 -147.5t-16 -139.5t-61 -80l84 -226h-205l-58 191h-59v-191h-197zM809 901h57q70 0 70 81t-72 81h-55v-162z" />
<glyph unicode="&#xaf;" horiz-adv-x="946" d="M444 1284l52 223h632l-53 -223h-631z" />
<glyph unicode="&#xb0;" d="M522 1110q0 137 85 222t222.5 85t222.5 -85t85 -222t-85 -221t-222.5 -84t-222.5 84t-85 221zM676 1110q0 -70 42 -113t111.5 -43t113.5 43t44 113t-44 114t-113.5 44t-111.5 -44t-42 -114z" />
<glyph unicode="&#xb1;" d="M203 39v246h942v-246h-942zM203 553v246h346v221h246v-221h350v-246h-350v-205h-246v205h-346z" />
<glyph unicode="&#xb2;" horiz-adv-x="573" d="M272 979l45 184l181 121q111 74 123 117q4 18 -11.5 24.5t-56.5 6.5l-160 -13l43 203q154 18 262.5 18t149.5 -47q23 -27 22.5 -68.5t-14.5 -99.5q-29 -111 -164 -194l-92 -57h193l-48 -195h-473z" />
<glyph unicode="&#xb3;" horiz-adv-x="573" d="M262 973l60 190q123 -12 186 -12t72 33q4 18 -6.5 23t-41.5 5h-135l43 174h131q41 0 47.5 23t-6 30t-39.5 7l-176 -10l35 186q143 18 225 18q209 0 209 -129q0 -25 -6 -53q-25 -106 -94 -143q43 -20 43 -82q0 -29 -10 -68q-51 -209 -293 -209z" />
<glyph unicode="&#xb4;" horiz-adv-x="1144" d="M500 1399l540 186l21 -246l-541 -159z" />
<glyph unicode="&#xb5;" d="M55 -430l207 905l6 21q0 6 4 18l117 510h275l-101 -430h2l-30 -135q-18 -88 -18.5 -138.5t17 -79t56.5 -28.5q70 0 172 92l33 31l157 688h275l-236 -1024h-262l12 100q-47 -47 -123.5 -86t-122.5 -39t-71 7l-94 -412h-275z" />
<glyph unicode="&#xb6;" horiz-adv-x="1157" d="M287 942q0 193 131 342.5t334 149.5h641l-52 -217h-69l-291 -1217h-219l289 1217h-117l-291 -1217h-221l149 627q-152 2 -218 90t-66 225z" />
<glyph unicode="&#xb7;" horiz-adv-x="309" d="M115 424l78 346h276l-78 -346h-276z" />
<glyph unicode="&#xb8;" horiz-adv-x="1619" d="M598 -446l41 165q61 -2 94 -2q74 0 86 50q6 25 -9 32.5t-54 7.5h-45l45 203h106l-22 -78h12q190 0 190 -125q0 -27 -8 -61q-51 -215 -264 -215q-82 0 -147 16z" />
<glyph unicode="&#xb9;" horiz-adv-x="573" d="M387 1464l254 154h197l-158 -639h-217l98 399l-112 -65z" />
<glyph unicode="&#xba;" horiz-adv-x="702" d="M221 877q0 66 19 137q45 182 145 260t272 78q98 0 180.5 -35t98.5 -107q8 -39 8 -87t-14 -111q-49 -205 -150.5 -287t-290.5 -82q-133 0 -200.5 66.5t-67.5 167.5zM459 917.5q0 -40.5 17.5 -59t69.5 -18.5t87 35.5t53.5 104.5t18.5 101q0 82 -89 82q-57 0 -88.5 -31.5 t-50 -102.5t-18.5 -111.5z" />
<glyph unicode="&#xbb;" horiz-adv-x="970" d="M39 88l76 268l231 133l-164 158l68 246l348 -346l-47 -125zM530 88l76 268l232 133l-164 158l67 246l349 -346l-48 -125z" />
<glyph unicode="&#xbc;" horiz-adv-x="1298" d="M209 41l883 1429l258 -90l-883 -1429zM324 1464l254 154h196l-158 -639h-217l99 399l-113 -65zM797 72l45 180l182 387h242l-199 -373h55l76 185h186l-47 -185h23l-49 -194h-23l-16 -72h-215l16 72h-276z" />
<glyph unicode="&#xbd;" horiz-adv-x="1325" d="M209 41l883 1429l258 -90l-883 -1429zM324 1464l254 154h196l-158 -639h-217l99 399l-113 -65zM842 0l45 184l180 121q111 74 123 117q4 18 -11.5 24.5t-56.5 6.5l-159 -13l43 203q154 18 262 18.5t149 -47.5q23 -27 23 -68.5t-15 -99.5q-29 -111 -163 -194l-93 -57h193 l-47 -195h-473z" />
<glyph unicode="&#xbe;" horiz-adv-x="1292" d="M203 41l882 1429l258 -90l-882 -1429zM221 973l60 190q123 -12 186 -12t72 33q4 18 -6.5 23t-40.5 5h-136l43 174h131q41 0 47.5 23t-6 30t-39.5 7l-176 -10l35 186q143 18 225 18q209 0 209 -129q0 -25 -6 -53q-25 -106 -94 -143q43 -20 43 -82q0 -29 -10 -68 q-51 -209 -293 -209zM791 72l45 180l182 387h242l-199 -373h55l76 185h186l-47 -185h23l-49 -194h-23l-16 -72h-215l16 72h-276z" />
<glyph unicode="&#xbf;" horiz-adv-x="884" d="M53 -74q0 139 65.5 228.5t243.5 212.5q111 76 127 149l19 82h258q0 -100 -17.5 -192.5t-191.5 -217.5q-121 -84 -167 -132t-46 -106.5t36 -77.5t107 -19q135 0 258 18l41 6l-28 -215q-184 -55 -328 -55q-377 0 -377 319zM520 680l78 344h279l-78 -344h-279z" />
<glyph unicode="&#xc0;" horiz-adv-x="1128" d="M27 0l626 1393h488l-43 -1393h-283l8 242h-405l-109 -242h-282zM524 487h310l28 660h-43zM649 1702l135 244l455 -187l-125 -215z" />
<glyph unicode="&#xc1;" horiz-adv-x="1128" d="M27 0l626 1393h488l-43 -1393h-283l8 242h-405l-109 -242h-282zM524 487h310l28 660h-43zM705 1784l540 186l21 -246l-541 -157z" />
<glyph unicode="&#xc2;" horiz-adv-x="1128" d="M27 0l626 1393h488l-43 -1393h-283l8 242h-405l-109 -242h-282zM524 487h310l28 660h-43zM559 1595l361 312h163l197 -312h-250l-53 113l-127 -113h-291z" />
<glyph unicode="&#xc3;" horiz-adv-x="1128" d="M27 0l626 1393h488l-43 -1393h-283l8 242h-405l-109 -242h-282zM524 487h310l28 660h-43zM575 1794q61 53 128 92t123.5 39t164 -43t127.5 -43q43 0 142 57l32 21l4 -193q-49 -49 -118.5 -89t-119.5 -40t-158.5 44t-137.5 44q-47 0 -148 -61l-30 -18z" />
<glyph unicode="&#xc4;" horiz-adv-x="1128" d="M27 0l626 1393h488l-43 -1393h-283l8 242h-405l-109 -242h-282zM524 487h310l28 660h-43zM631 1614l63 276h228l-66 -276h-225zM1038 1614l64 276h227l-67 -276h-224z" />
<glyph unicode="&#xc5;" horiz-adv-x="1128" d="M27 0l614 1364q-2 16 -2 42t8 62q29 119 117 179.5t208 60.5t179 -59q43 -41 43 -109q0 -96 -55 -174l-41 -1366h-283l8 242h-405l-109 -242h-282zM524 487h310l28 660h-43zM821 1449q0 -13 18.5 -28.5t59.5 -15.5q92 0 107 63q2 8 2 23.5t-22.5 28t-55.5 12.5 q-91 -1 -107 -64q-2 -6 -2 -19z" />
<glyph unicode="&#xc6;" horiz-adv-x="1544" d="M29 0l630 1413h1145l-61 -268l-565 4l-78 -326h450l-59 -256h-453l-71 -301h565l-59 -266h-832l57 244h-292l-109 -244h-268zM524 506h238l149 641h-106z" />
<glyph unicode="&#xc7;" horiz-adv-x="1011" d="M203 379q0 299 100 551q55 139 135 246.5t204 174t278 66.5q150 0 301 -45l49 -16l-66 -209q-127 25 -295 24q-127 0 -224 -112.5t-144 -286.5t-47 -373q0 -178 165 -178q158 0 285 21l47 6l-22 -219q-190 -53 -346 -54h-21l-12 -43h12q190 0 191 -125q0 -27 -9 -61 q-51 -215 -264 -215q-82 0 -147 16l-25 7l41 165q61 -2 94 -2q74 0 86 50q6 25 -9 32.5t-54 7.5h-45l39 179q-297 55 -297 393z" />
<glyph unicode="&#xc8;" horiz-adv-x="1017" d="M133 0l320 1393h817l-58 -246h-532l-76 -328h422l-57 -246h-420l-76 -327h535l-56 -246h-819zM553 1702l135 244l455 -187l-125 -215z" />
<glyph unicode="&#xc9;" horiz-adv-x="1017" d="M133 0l320 1393h817l-58 -246h-532l-76 -328h422l-57 -246h-420l-76 -327h535l-56 -246h-819zM694 1784l541 186l20 -246l-540 -157z" />
<glyph unicode="&#xca;" horiz-adv-x="1017" d="M133 0l320 1393h817l-58 -246h-532l-76 -328h422l-57 -246h-420l-76 -327h535l-56 -246h-819zM532 1602l361 311h164l196 -311h-249l-54 112l-127 -112h-291z" />
<glyph unicode="&#xcb;" horiz-adv-x="1017" d="M133 0l320 1393h817l-58 -246h-532l-76 -328h422l-57 -246h-420l-76 -327h535l-56 -246h-819zM588 1614l63 276h228l-66 -276h-225zM995 1614l64 276h227l-67 -276h-224z" />
<glyph unicode="&#xcc;" horiz-adv-x="548" d="M133 0l322 1393h282l-321 -1393h-283zM295 1702l135 244l455 -187l-125 -215z" />
<glyph unicode="&#xcd;" horiz-adv-x="548" d="M133 0l322 1393h282l-321 -1393h-283zM449 1784l540 186l21 -246l-541 -157z" />
<glyph unicode="&#xce;" horiz-adv-x="548" d="M133 0l322 1393h282l-321 -1393h-283zM270 1602l361 311h164l196 -311h-250l-53 112l-127 -112h-291z" />
<glyph unicode="&#xcf;" horiz-adv-x="548" d="M133 0l322 1393h282l-321 -1393h-283zM324 1638l63 277h227l-65 -277h-225zM731 1638l64 277h227l-68 -277h-223z" />
<glyph unicode="&#xd0;" horiz-adv-x="1255" d="M150 0l129 563h-109l59 279h115l127 551h438q459 0 459 -424q0 -299 -111 -541q-125 -270 -342 -371q-121 -57 -266 -57h-499zM489 246h185q104 0 186 75.5t127 191.5t67.5 233.5t22.5 219t-56 141.5t-169 40h-156l-69 -305h223l-62 -279h-227z" />
<glyph unicode="&#xd1;" horiz-adv-x="1333" d="M133 0l322 1393h448l74 -1092h24l248 1092h273l-322 -1393h-426l-90 1112h-25l-260 -1112h-266zM666 1792q61 53 127.5 92t123 39t164 -43t127.5 -43q43 0 142 59l32 19l4 -193q-49 -49 -118.5 -89t-119.5 -40t-158.5 44t-137.5 44q-55 0 -147 -59l-31 -20z" />
<glyph unicode="&#xd2;" horiz-adv-x="1259" d="M207 401q0 268 82 506t239.5 374t389.5 136q453 0 452 -426q0 -280 -84 -523t-244.5 -368t-382.5 -125q-453 0 -452 426zM498 459.5q0 -142.5 44 -190.5t149.5 -48t174.5 70q96 96 154.5 290.5t58.5 381.5q0 113 -43 160.5t-149.5 47.5t-167.5 -61q-102 -100 -161.5 -304 t-59.5 -346.5zM676 1702l135 244l455 -187l-125 -215z" />
<glyph unicode="&#xd3;" horiz-adv-x="1259" d="M207 401q0 268 82 506t239.5 374t389.5 136q453 0 452 -426q0 -280 -84 -523t-244.5 -368t-382.5 -125q-453 0 -452 426zM498 459.5q0 -142.5 44 -190.5t149.5 -48t174.5 70q96 96 154.5 290.5t58.5 381.5q0 113 -43 160.5t-149.5 47.5t-167.5 -61q-102 -100 -161.5 -304 t-59.5 -346.5zM774 1784l541 186l20 -246l-540 -157z" />
<glyph unicode="&#xd4;" horiz-adv-x="1259" d="M207 401q0 268 82 506t239.5 374t389.5 136q453 0 452 -426q0 -280 -84 -523t-244.5 -368t-382.5 -125q-453 0 -452 426zM498 459.5q0 -142.5 44 -190.5t149.5 -48t174.5 70q96 96 154.5 290.5t58.5 381.5q0 113 -43 160.5t-149.5 47.5t-167.5 -61q-102 -100 -161.5 -304 t-59.5 -346.5zM633 1595l360 312h164l197 -312h-250l-53 113l-127 -113h-291z" />
<glyph unicode="&#xd5;" horiz-adv-x="1259" d="M207 401q0 268 82 506t239.5 374t389.5 136q453 0 452 -426q0 -280 -84 -523t-244.5 -368t-382.5 -125q-453 0 -452 426zM498 459.5q0 -142.5 44 -190.5t149.5 -48t174.5 70q96 96 154.5 290.5t58.5 381.5q0 113 -43 160.5t-149.5 47.5t-167.5 -61q-102 -100 -161.5 -304 t-59.5 -346.5zM672 1792q61 53 127.5 92t123 39t164 -43t125.5 -43q45 0 144 59l33 19l4 -193q-49 -49 -119 -89t-120 -40t-158.5 44t-137.5 44q-55 0 -145 -59l-33 -20z" />
<glyph unicode="&#xd6;" horiz-adv-x="1259" d="M207 401q0 268 82 506t239.5 374t389.5 136q453 0 452 -426q0 -280 -84 -523t-244.5 -368t-382.5 -125q-453 0 -452 426zM498 459.5q0 -142.5 44 -190.5t149.5 -48t174.5 70q96 96 154.5 290.5t58.5 381.5q0 113 -43 160.5t-149.5 47.5t-167.5 -61q-102 -100 -161.5 -304 t-59.5 -346.5zM657 1599l64 277h248l-66 -277h-246zM1075 1599l64 277h247l-65 -277h-246z" />
<glyph unicode="&#xd7;" d="M233 227l291 285l-288 283l174 174l282 -289l287 293l172 -174l-293 -287l293 -285l-174 -174l-285 291l-284 -289z" />
<glyph unicode="&#xd8;" horiz-adv-x="1259" d="M109 -166l186 275q-88 106 -88 292q0 268 82 506t239.5 374t389.5 136q141 0 235 -41l186 273l152 -64l-209 -307q88 -109 88 -287q0 -281 -84 -524q-170 -492 -641 -492q-123 0 -223 39l-178 -262zM498 410l501 741q-41 20 -130 20t-150 -61q-102 -100 -161.5 -304 t-59.5 -376v-20zM578 242q41 -20 130 -20.5t158 69.5q96 96 154.5 290.5t58.5 381.5v16z" />
<glyph unicode="&#xd9;" horiz-adv-x="1218" d="M211 291q0 106 27 227l202 875h283l-213 -920q-18 -78 -18 -140.5t41.5 -87t147 -24.5t159 56.5t84.5 195.5l213 920h282l-213 -920q-59 -262 -193 -380t-356 -118q-446 0 -446 316zM662 1702l135 244l454 -187l-125 -215z" />
<glyph unicode="&#xda;" horiz-adv-x="1218" d="M211 291q0 106 27 227l202 875h283l-213 -920q-18 -78 -18 -140.5t41.5 -87t147 -24.5t159 56.5t84.5 195.5l213 920h282l-213 -920q-59 -262 -193 -380t-356 -118q-446 0 -446 316zM719 1784l541 186l20 -246l-541 -157z" />
<glyph unicode="&#xdb;" horiz-adv-x="1218" d="M211 291q0 106 27 227l202 875h283l-213 -920q-18 -78 -18 -140.5t41.5 -87t147 -24.5t159 56.5t84.5 195.5l213 920h282l-213 -920q-59 -262 -193 -380t-356 -118q-446 0 -446 316zM604 1595l361 312h163l197 -312h-250l-53 113l-127 -113h-291z" />
<glyph unicode="&#xdc;" horiz-adv-x="1218" d="M211 291q0 106 27 227l202 875h283l-213 -920q-18 -78 -18 -140.5t41.5 -87t147 -24.5t159 56.5t84.5 195.5l213 920h282l-213 -920q-59 -262 -193 -380t-356 -118q-446 0 -446 316zM625 1599l63 277h248l-66 -277h-245zM1042 1599l64 277h248l-66 -277h-246z" />
<glyph unicode="&#xdd;" horiz-adv-x="1032" d="M324 1393h286l99 -543l346 543h299l-574 -803l-139 -590h-262l139 602zM686 1784l541 186l20 -246l-540 -157z" />
<glyph unicode="&#xde;" horiz-adv-x="1101" d="M129 0l334 1413h268l-51 -199h197q205 0 299 -145q66 -96 65 -227q0 -61 -14 -129q-53 -240 -208 -375t-374 -135h-6l-197 2l-47 -205h-266zM508 483h194q197 0 254 230q8 39 8.5 80t-18.5 77q-33 63 -133 66l-197 4z" />
<glyph unicode="&#xdf;" horiz-adv-x="1155" d="M111 0l251 1065q54 223 171.5 308t325.5 85t311.5 -76.5t103.5 -220.5q0 -106 -41 -176t-147.5 -112t-144.5 -67.5t-38 -60t24.5 -57t99.5 -72t101 -71.5q66 -55 66 -176q0 -182 -112.5 -288t-309.5 -106q-133 0 -280 43l-50 15l60 200q143 -25 234 -24.5t135 36.5t44 79 t-20.5 63.5t-109.5 73.5t-124.5 102t-35.5 147.5t53 166t157.5 116.5t132 73t27.5 67q0 92 -155 92q-98 0 -151.5 -46t-78.5 -151l-241 -1028h-258z" />
<glyph unicode="&#xe0;" horiz-adv-x="1081" d="M164 348q0 236 119 453q59 109 163.5 178.5t237.5 69.5q141 0 418 -50l94 -18l-154 -662l-55 -313l-272 -10q18 125 26 160q-84 -113 -196 -160q-47 -21 -92 -21q-150 0 -219.5 101.5t-69.5 271.5zM442 348q0 -72 22.5 -105.5t71 -33.5t109 45t100.5 90l41 47l95 395 q-136 29 -189 29q-78 0 -137 -80q-113 -152 -113 -387zM590 1356l131 225l453 -184l-115 -203z" />
<glyph unicode="&#xe1;" horiz-adv-x="1081" d="M164 348q0 236 119 453q59 109 163.5 178.5t237.5 69.5q141 0 418 -50l94 -18l-154 -662l-55 -313l-272 -10q18 125 26 160q-84 -113 -196 -160q-47 -21 -92 -21q-150 0 -219.5 101.5t-69.5 271.5zM442 348q0 -72 22.5 -105.5t71 -33.5t109 45t100.5 90l41 47l95 395 q-136 29 -189 29q-78 0 -137 -80q-113 -152 -113 -387zM668 1399l540 186l21 -246l-541 -159z" />
<glyph unicode="&#xe2;" horiz-adv-x="1081" d="M164 348q0 236 119 453q59 109 163.5 178.5t237.5 69.5q141 0 418 -50l94 -18l-154 -662l-55 -313l-272 -10q18 125 26 160q-84 -113 -196 -160q-47 -21 -92 -21q-150 0 -219.5 101.5t-69.5 271.5zM434 1178l344 358h205l176 -358h-270l-49 131l-119 -131h-287zM442 348 q0 -72 22.5 -105.5t71 -33.5t109 45t100.5 90l41 47l95 395q-136 29 -189 29q-78 0 -137 -80q-113 -152 -113 -387z" />
<glyph unicode="&#xe3;" horiz-adv-x="1081" d="M164 348q0 236 119 453q59 109 163.5 178.5t237.5 69.5q141 0 418 -50l94 -18l-154 -662l-55 -313l-272 -10q18 125 26 160q-84 -113 -196 -160q-47 -21 -92 -21q-150 0 -219.5 101.5t-69.5 271.5zM442 348q0 -72 22.5 -105.5t71 -33.5t109 45t100.5 90l41 47l95 395 q-136 29 -189 29q-78 0 -137 -80q-113 -152 -113 -387zM563 1405q16 14 41 36.5t88.5 59.5t116.5 37t145.5 -44t112.5 -44q39 0 141 61l33 19l8 -191l-41 -36q-24 -21 -87.5 -58t-113 -37t-142.5 45t-120 45q-49 0 -143 -61l-33 -20z" />
<glyph unicode="&#xe4;" horiz-adv-x="1081" d="M164 348q0 236 119 453q59 109 163.5 178.5t237.5 69.5q141 0 418 -50l94 -18l-154 -662l-55 -313l-272 -10q18 125 26 160q-84 -113 -196 -160q-47 -21 -92 -21q-150 0 -219.5 101.5t-69.5 271.5zM442 348q0 -72 22.5 -105.5t71 -33.5t109 45t100.5 90l41 47l95 395 q-136 29 -189 29q-78 0 -137 -80q-113 -152 -113 -387zM496 1231l63 276h248l-66 -276h-245zM913 1231l64 276h248l-66 -276h-246z" />
<glyph unicode="&#xe5;" horiz-adv-x="1081" d="M164 348q0 236 119 453q59 109 163.5 178.5t237.5 69.5q141 0 418 -50l94 -18l-154 -662l-55 -313l-272 -10q18 125 26 160q-84 -113 -196 -160q-47 -21 -92 -21q-150 0 -219.5 101.5t-69.5 271.5zM442 348q0 -72 22.5 -105.5t71 -33.5t109 45t100.5 90l41 47l95 395 q-136 29 -189 29q-78 0 -137 -80q-113 -152 -113 -387zM668 1264q0 145 106 237q70 61 167 61.5t134 -63.5q23 -37 23 -80q0 -154 -105 -239q-72 -59 -168 -59.5t-133 63.5q-25 39 -24 80zM821 1324q0 -11 11.5 -26.5t37.5 -15.5q55 0 74 59q2 8 2 19.5t-12 25t-35 13.5 q-58 -1 -74 -56q-4 -8 -4 -19z" />
<glyph unicode="&#xe6;" horiz-adv-x="1462" d="M106.5 210q-0.5 60 10.5 103q59 258 313 305q115 20 188.5 20.5t96.5 0.5q14 27 14 59q0 92 -65 93q-127 0 -312 -21l-61 -8l43 239q260 45 416.5 45.5t218.5 -83.5q115 84 268.5 84t232.5 -72q86 -80 86 -230q0 -82 -26 -178l-47 -174l-551 4q-6 -28 -6 -55 q0 -119 141 -119q98 0 297 15l55 4l-47 -209q-186 -57 -389 -57.5t-278 100.5q-53 -29 -173 -65t-188 -36q-129 0 -194 105q-43 70 -43.5 130zM377 293q0 -82 63 -82q96 0 207 27q-2 20 -2 65t23 131q-51 0 -162 -8q-45 -4 -80 -33q-49 -37 -49 -100zM979 606l307 -4 q14 51 14 82t-4 49q-16 78 -109 78t-137 -52t-71 -153z" />
<glyph unicode="&#xe7;" horiz-adv-x="839" d="M170 332q0 313 138 515t397 202q123 0 262 -50l43 -14l-70 -201q-158 27 -248 27q-117 0 -180 -128t-63 -299t155 -171l219 16l-22 -202q-129 -45 -264 -52l-13 -43h13q190 0 190 -125q0 -27 -8 -61q-51 -215 -264 -215q-82 0 -148 16l-24 7l41 165q61 -2 94 -2 q74 0 86 50q6 25 -9.5 32.5t-54.5 7.5h-45l39 175q-123 20 -193.5 111t-70.5 239z" />
<glyph unicode="&#xe8;" horiz-adv-x="974" d="M166 305q0 162 32.5 289t97 229.5t176.5 163t255 60.5q358 0 358 -306q0 -195 -131 -268.5t-436 -73.5h-72q-6 -25 -6 -77t42 -82.5t106 -30.5q141 0 289 20l53 7l-31 -203q-190 -57 -376.5 -57.5t-271.5 83.5t-85 246zM403 1356l132 225l452 -184l-115 -203zM477 602h84 q141 0 197.5 31t56.5 104q0 88 -102 88q-182 0 -236 -223z" />
<glyph unicode="&#xe9;" horiz-adv-x="974" d="M166 305q0 162 32.5 289t97 229.5t176.5 163t255 60.5q358 0 358 -306q0 -195 -131 -268.5t-436 -73.5h-72q-6 -25 -6 -77t42 -82.5t106 -30.5q141 0 289 20l53 7l-31 -203q-190 -57 -376.5 -57.5t-271.5 83.5t-85 246zM477 602h84q141 0 197.5 31t56.5 104q0 88 -102 88 q-182 0 -236 -223zM557 1399l541 186l20 -246l-540 -159z" />
<glyph unicode="&#xea;" horiz-adv-x="974" d="M166 305q0 162 32.5 289t97 229.5t176.5 163t255 60.5q358 0 358 -306q0 -195 -131 -268.5t-436 -73.5h-72q-6 -25 -6 -77t42 -82.5t106 -30.5q141 0 289 20l53 7l-31 -203q-190 -57 -376.5 -57.5t-271.5 83.5t-85 246zM379 1178l344 358h205l176 -358h-270l-50 131 l-118 -131h-287zM477 602h84q141 0 197.5 31t56.5 104q0 88 -102 88q-182 0 -236 -223z" />
<glyph unicode="&#xeb;" horiz-adv-x="974" d="M166 305q0 162 32.5 289t97 229.5t176.5 163t255 60.5q358 0 358 -306q0 -195 -131 -268.5t-436 -73.5h-72q-6 -25 -6 -77t42 -82.5t106 -30.5q141 0 289 20l53 7l-31 -203q-190 -57 -376.5 -57.5t-271.5 83.5t-85 246zM432 1231l64 276h247l-65 -276h-246zM477 602h84 q141 0 197.5 31t56.5 104q0 88 -102 88q-182 0 -236 -223zM850 1231l63 276h248l-65 -276h-246z" />
<glyph unicode="&#xec;" horiz-adv-x="497" d="M113 0l235 1024h275l-236 -1024h-274zM145 1356l131 225l453 -184l-115 -203z" />
<glyph unicode="&#xed;" horiz-adv-x="497" d="M113 0l235 1024h275l-236 -1024h-274zM352 1399l541 186l20 -246l-540 -159z" />
<glyph unicode="&#xee;" horiz-adv-x="497" d="M113 0l235 1024h275l-236 -1024h-274zM141 1178l344 358h205l176 -358h-270l-49 131l-119 -131h-287z" />
<glyph unicode="&#xef;" horiz-adv-x="497" d="M113 0l235 1024h275l-236 -1024h-274zM182 1231l64 276h248l-66 -276h-246zM600 1231l64 276h247l-65 -276h-246z" />
<glyph unicode="&#xf0;" horiz-adv-x="1079" d="M147 322q0 61 19 131q53 199 191.5 321.5t336.5 122.5q119 0 205 -33l29 -12q4 29 4 53q0 141 -152 209l-219 -151l-94 147l92 64l-131 18l90 238q201 -10 336 -54l201 137l88 -147l-111 -78q172 -127 172 -360q0 -94 -26 -205q-94 -387 -245 -564t-423 -177 q-213 0 -305 139q-57 90 -58 201zM428 362q0 -121 143 -120q211 0 303 364q-90 45 -219 45q-74 0 -129 -54t-80 -142q-18 -52 -18 -93z" />
<glyph unicode="&#xf1;" horiz-adv-x="1050" d="M113 0l235 1024h262l-12 -100l35 30q35 33 100.5 64t124.5 31q250 0 250 -289q0 -74 -43 -258l-115 -502h-274l110 481q37 154 37 214.5t-15 88t-74.5 27.5t-188.5 -123l-158 -688h-274zM506 1405q16 14 40.5 36.5t88 59.5t117 37t145.5 -44t113 -44q39 0 141 61l33 19 l8 -191l-41 -36q-25 -21 -88.5 -58t-112.5 -37t-142 45t-120 45q-49 0 -143 -61l-33 -20z" />
<glyph unicode="&#xf2;" horiz-adv-x="1015" d="M164 362q0 164 59.5 318t181 260.5t277.5 106.5q403 0 403 -388q0 -166 -55 -317.5t-177 -259t-286 -107.5q-403 0 -403 387zM436 358q0 -149 131 -149q111 0 178.5 140t67.5 315q0 150 -131 149q-111 0 -178.5 -140.5t-67.5 -314.5zM465 1356l131 225l453 -184 l-115 -203z" />
<glyph unicode="&#xf3;" horiz-adv-x="1015" d="M164 362q0 164 59.5 318t181 260.5t277.5 106.5q403 0 403 -388q0 -166 -55 -317.5t-177 -259t-286 -107.5q-403 0 -403 387zM436 358q0 -149 131 -149q111 0 178.5 140t67.5 315q0 150 -131 149q-111 0 -178.5 -140.5t-67.5 -314.5zM559 1399l541 186l20 -246l-540 -159 z" />
<glyph unicode="&#xf4;" horiz-adv-x="1015" d="M164 362q0 164 59.5 318t181 260.5t277.5 106.5q403 0 403 -388q0 -166 -55 -317.5t-177 -259t-286 -107.5q-403 0 -403 387zM410 1178l344 358h204l177 -358h-271l-49 131l-119 -131h-286zM436 358q0 -149 131 -149q111 0 178.5 140t67.5 315q0 150 -131 149 q-111 0 -178.5 -140.5t-67.5 -314.5z" />
<glyph unicode="&#xf5;" horiz-adv-x="1015" d="M164 362q0 164 59.5 318t181 260.5t277.5 106.5q403 0 403 -388q0 -166 -55 -317.5t-177 -259t-286 -107.5q-403 0 -403 387zM436 358q0 -149 131 -149q111 0 178.5 140t67.5 315q0 150 -131 149q-111 0 -178.5 -140.5t-67.5 -314.5zM455 1405q16 14 40.5 36.5t88 59.5 t117 37t145.5 -44t112 -44q39 0 142 61l33 19l8 -191l-41 -36q-25 -21 -88.5 -58t-112.5 -37t-142 45t-118 45q-51 0 -147 -61l-31 -20z" />
<glyph unicode="&#xf6;" horiz-adv-x="1015" d="M164 362q0 164 59.5 318t181 260.5t277.5 106.5q403 0 403 -388q0 -166 -55 -317.5t-177 -259t-286 -107.5q-403 0 -403 387zM436 358q0 -149 131 -149q111 0 178.5 140t67.5 315q0 150 -131 149q-111 0 -178.5 -140.5t-67.5 -314.5zM467 1231l63 276h228l-66 -276h-225z M864 1231l64 276h227l-65 -276h-226z" />
<glyph unicode="&#xf7;" d="M221 391v246h942v-246h-942zM555 35v270h270v-270h-270zM555 721v270h270v-270h-270z" />
<glyph unicode="&#xf8;" horiz-adv-x="1015" d="M115 -156l149 234q-98 94 -98 273t59.5 333t181 260.5t277.5 106.5q98 0 174 -25l131 215l146 -63l-146 -228q98 -94 98 -273t-55 -330.5t-177 -259t-286 -107.5q-96 0 -176 22l-135 -221zM438 346l127 199l162 266q-18 6 -43 6q-111 0 -178.5 -140t-67.5 -315v-16z M526 217q25 -4 43 -4q111 0 178.5 140.5t67.5 314.5v10l-127 -197z" />
<glyph unicode="&#xf9;" horiz-adv-x="1050" d="M178 264q0 80 43 258l115 502h274l-110 -481q-37 -154 -37 -213.5t17.5 -88t56.5 -28.5q70 0 172 92l32 31l158 688h275l-236 -1024h-262l12 100q-47 -47 -124 -86t-136 -39q-250 0 -250 289zM473 1356l131 225l453 -184l-115 -203z" />
<glyph unicode="&#xfa;" horiz-adv-x="1050" d="M178 264q0 80 43 258l115 502h274l-110 -481q-37 -154 -37 -213.5t17.5 -88t56.5 -28.5q70 0 172 92l32 31l158 688h275l-236 -1024h-262l12 100q-47 -47 -124 -86t-136 -39q-250 0 -250 289zM567 1399l541 186l20 -246l-540 -159z" />
<glyph unicode="&#xfb;" horiz-adv-x="1050" d="M178 264q0 80 43 258l115 502h274l-110 -481q-37 -154 -37 -213.5t17.5 -88t56.5 -28.5q70 0 172 92l32 31l158 688h275l-236 -1024h-262l12 100q-47 -47 -124 -86t-136 -39q-250 0 -250 289zM403 1178l345 358h204l176 -358h-270l-49 131l-119 -131h-287z" />
<glyph unicode="&#xfc;" horiz-adv-x="1050" d="M178 264q0 80 43 258l115 502h274l-110 -481q-37 -154 -37 -213.5t17.5 -88t56.5 -28.5q70 0 172 92l32 31l158 688h275l-236 -1024h-262l12 100q-47 -47 -124 -86t-136 -39q-250 0 -250 289zM442 1231l64 276h248l-66 -276h-246zM860 1231l64 276h247l-65 -276h-246z " />
<glyph unicode="&#xfd;" horiz-adv-x="950" d="M209 -430l211 430h-170l8 1024h268l-28 -797h30l357 797h276l-680 -1454h-272zM539 1399l540 186l21 -246l-541 -159z" />
<glyph unicode="&#xfe;" horiz-adv-x="1013" d="M8 -426l438 1856h259l-109 -469q125 86 224.5 86t170 -49.5t90 -124t19.5 -116.5t-2 -92.5t-27 -142.5q-84 -307 -212 -427t-351 -120q-145 0 -146 11l-96 -412h-258zM422 231l137 -12q170 0 248 303q18 68 18 109t-4 75.5t-30.5 61.5t-65.5 27q-63 0 -160 -60l-28 -18z " />
<glyph unicode="&#xff;" horiz-adv-x="950" d="M209 -430l211 430h-170l8 1024h268l-28 -797h30l357 797h276l-680 -1454h-272zM406 1231l63 276h248l-66 -276h-245zM823 1231l64 276h248l-66 -276h-246z" />
<glyph unicode="&#x152;" horiz-adv-x="1701" d="M193 362q0 147 47 345q90 379 257 555t418 176q86 0 222 -25h827l-61 -268h-566l-80 -322h451l-59 -256l-449 4l-72 -303h564l-62 -268h-821q-152 -25 -238 -25q-379 0 -378 387zM475 437.5q0 -99.5 46.5 -145.5t150.5 -46q55 0 190 12l215 897q-104 12 -190 12 q-139 0 -225.5 -103t-145.5 -357q-41 -170 -41 -269.5z" />
<glyph unicode="&#x153;" horiz-adv-x="1554" d="M156 337q0 73 27.5 183.5t65.5 197.5t101 167q131 162 391 162q190 0 279 -111q129 111 293 111q311 0 338 -248q4 -33 4 -88.5t-25 -128.5l-59 -189l-549 4q-8 -32 -8 -59q0 -115 149 -115q96 0 297 15l58 4l-48 -209q-186 -57 -385.5 -57.5t-275.5 100.5 q-135 -100 -320 -101q-289 0 -325 240q-8 49 -8 122zM420 352q0 -133 125 -133q131 0 192 146q76 174 76 309q0 66 -29.5 97.5t-99.5 31.5q-98 0 -152.5 -76t-83 -194t-28.5 -181zM1069 606l311 -4q16 66 16.5 92.5t-1.5 38.5q-12 63 -108.5 63.5t-145.5 -47t-72 -143.5z " />
<glyph unicode="&#x178;" horiz-adv-x="1032" d="M324 1393h286l99 -543l346 543h299l-574 -803l-139 -590h-262l139 602zM559 1614l64 276h227l-66 -276h-225zM967 1614l63 276h227l-67 -276h-223z" />
<glyph unicode="&#x2c6;" horiz-adv-x="1619" d="M723 1178l344 358h164l176 -358h-250l-49 131l-119 -131h-266z" />
<glyph unicode="&#x2dc;" horiz-adv-x="913" d="M403 1405q16 14 41 36.5t88.5 59.5t116.5 37t145.5 -44t112.5 -44q39 0 142 61l32 19l9 -191l-41 -36q-25 -21 -88.5 -58t-112.5 -37t-142.5 45t-119.5 45q-49 0 -144 -61l-32 -20z" />
<glyph unicode="&#x2000;" horiz-adv-x="985" />
<glyph unicode="&#x2001;" horiz-adv-x="1970" />
<glyph unicode="&#x2002;" horiz-adv-x="985" />
<glyph unicode="&#x2003;" horiz-adv-x="1970" />
<glyph unicode="&#x2004;" horiz-adv-x="656" />
<glyph unicode="&#x2005;" horiz-adv-x="492" />
<glyph unicode="&#x2006;" horiz-adv-x="328" />
<glyph unicode="&#x2007;" horiz-adv-x="328" />
<glyph unicode="&#x2008;" horiz-adv-x="246" />
<glyph unicode="&#x2009;" horiz-adv-x="394" />
<glyph unicode="&#x200a;" horiz-adv-x="109" />
<glyph unicode="&#x2010;" horiz-adv-x="546" d="M109 420l61 246h518l-61 -246h-518z" />
<glyph unicode="&#x2011;" horiz-adv-x="546" d="M109 420l61 246h518l-61 -246h-518z" />
<glyph unicode="&#x2012;" horiz-adv-x="546" d="M109 420l61 246h518l-61 -246h-518z" />
<glyph unicode="&#x2013;" horiz-adv-x="1077" d="M154 428v234h1024v-234h-1024z" />
<glyph unicode="&#x2014;" horiz-adv-x="2101" d="M154 428v234h2048v-234h-2048z" />
<glyph unicode="&#x2018;" horiz-adv-x="356" d="M197 868l280 523h205l-215 -523h-270z" />
<glyph unicode="&#x2019;" horiz-adv-x="356" d="M197 870l215 523h270l-281 -523h-204z" />
<glyph unicode="&#x201a;" horiz-adv-x="307" d="M-135 -338l215 522h270l-280 -522h-205z" />
<glyph unicode="&#x201c;" horiz-adv-x="743" d="M193 870l280 523h205l-215 -523h-270zM582 870l280 523h205l-215 -523h-270z" />
<glyph unicode="&#x201d;" horiz-adv-x="745" d="M197 870l215 523h270l-281 -523h-204zM586 870l215 523h270l-280 -523h-205z" />
<glyph unicode="&#x201e;" horiz-adv-x="710" d="M-186 -348l280 522h205l-215 -522h-270zM264 -348l281 522h205l-215 -522h-271z" />
<glyph unicode="&#x2022;" horiz-adv-x="937" d="M328 205v573h512v-573h-512z" />
<glyph unicode="&#x2026;" horiz-adv-x="1257" d="M16 0l72 313h279l-72 -313h-279zM487 0l72 313h279l-72 -313h-279zM963 0l71 313h279l-72 -313h-278z" />
<glyph unicode="&#x202f;" horiz-adv-x="394" />
<glyph unicode="&#x2039;" horiz-adv-x="475" d="M109 434l47 125l512 334l-76 -268l-232 -133l164 -158l-67 -246z" />
<glyph unicode="&#x203a;" horiz-adv-x="479" d="M39 88l76 268l231 133l-164 158l68 246l348 -346l-47 -125z" />
<glyph unicode="&#x205f;" horiz-adv-x="492" />
<glyph unicode="&#x20ac;" d="M186 375l50 215h83q16 94 29 141h-82l51 215h101q190 430 583 430q154 0 293 -45l47 -14l-63 -203q-123 23 -287 23t-276 -191h422l-50 -215h-456q-20 -74 -29 -141h455l-49 -215h-420q4 -160 162 -160q137 0 274 18l47 7l-22 -211q-184 -54 -336 -54q-408 0 -408 394v6 h-119z" />
<glyph unicode="&#x2122;" horiz-adv-x="1411" d="M438 1157v162h410v-162h-84v-477h-180v477h-146zM899 678v641h211l84 -324l92 324h209v-641h-168v356l-70 -313h-112l-78 313v-356h-168z" />
<glyph unicode="&#x25fc;" horiz-adv-x="1024" d="M0 0v1024h1024v-1024h-1024z" />
</font>
</defs>
</svg>
