<?xml version="1.0" standalone="no"?>
<!DOCTYPE svg PUBLIC "-//W3C//DTD SVG 1.1//EN" "http://www.w3.org/Graphics/SVG/1.1/DTD/svg11.dtd" >
<svg xmlns="http://www.w3.org/2000/svg" xmlns:xlink="http://www.w3.org/1999/xlink" version="1.1">
<metadata></metadata>
<defs>
<font id="titillium_webXLtIt" horiz-adv-x="1146" >
<font-face units-per-em="2048" ascent="1638" descent="-410" />
<missing-glyph horiz-adv-x="450" />
<glyph horiz-adv-x="0" />
<glyph unicode="&#xd;" horiz-adv-x="681" />
<glyph unicode=" "  horiz-adv-x="450" />
<glyph unicode="&#x09;" horiz-adv-x="450" />
<glyph unicode="&#xa0;" horiz-adv-x="450" />
<glyph unicode="!" horiz-adv-x="423" d="M182 0l39 170h74l-39 -170h-74zM276 432l232 1002h67l-241 -1002h-58z" />
<glyph unicode="&#x22;" horiz-adv-x="649" d="M377 995l98 435h72l-103 -435h-67zM662 995l98 435h71l-102 -435h-67z" />
<glyph unicode="#" d="M145 389l17 66h246l114 463h-246l17 65h246l98 389h74l-99 -389h385l99 389h73l-98 -389h246l-17 -65h-245l-115 -463h246l-17 -66h-245l-95 -389h-73l94 389h-385l-94 -389h-74l94 389h-246zM481 455h385l115 463h-385z" />
<glyph unicode="$" d="M205 16l12 64q127 -18 254 -29l225 631q-145 43 -209.5 98.5t-64.5 171.5q0 207 130 313.5t353 106.5l37 -2l88 248h68l-90 -252q106 -8 198 -27l31 -6l-12 -59q-123 20 -240 31l-207 -576q147 -45 211 -100.5t64 -177.5q0 -215 -127 -342t-342 -127q-49 0 -74 2 l-82 -230h-63l81 234zM494 952q0 -86 50 -126t175 -78l201 561h-29q-186 0 -291.5 -90.5t-105.5 -266.5zM532 47h64q180 0 281.5 109t101.5 293q0 96 -46 138t-177 79z" />
<glyph unicode="%" d="M336 1043.5q0 54.5 16 121.5q70 273 281 273q158 0 158 -156q0 -51 -17 -119q-35 -141 -109.5 -211.5t-172 -70.5t-136.5 69q-20 39 -20 93.5zM381 12l649 1424l66 -11l-650 -1423zM408 1059q0 -113 102 -113q74 0 120 54.5t67.5 139.5t21.5 130q0 102 -103 102 q-74 0 -119.5 -51t-67 -134t-21.5 -128zM692.5 163q-0.5 54 16.5 122q69 272 278 272q160 0 160 -156q0 -51 -17 -118q-35 -141 -109.5 -212t-171.5 -71t-136 70q-20 39 -20.5 93zM766 180q0 -115 98 -114q139 0 195 217q16 61 16 104q0 104 -104 105q-74 0 -119 -50.5 t-65.5 -134.5t-20.5 -127z" />
<glyph unicode="&#x26;" horiz-adv-x="1292" d="M170 291q0 217 99.5 343t334.5 212q-49 106 -49 192q0 188 97.5 301t271.5 113q248 0 247 -213q0 -322 -430 -479l275 -381q86 150 135 295h78q-57 -182 -164 -355l211 -276l-51 -49l-203 262q-207 -274 -490 -274q-182 0 -272 72.5t-90 236.5zM248 291q-1 -240 284 -240 q264 0 443 264l-336 469q-215 -76 -303 -190.5t-88 -302.5zM633 1058q0 -134 74 -241q203 78 295 178.5t92 245.5t-176 145q-140 0 -212.5 -97t-72.5 -231z" />
<glyph unicode="'" horiz-adv-x="364" d="M377 995l98 435h72l-103 -435h-67z" />
<glyph unicode="(" horiz-adv-x="456" d="M207 151.5q0 243.5 46 450.5t112 365q137 328 245 495l47 70h72q-70 -106 -151.5 -270t-141 -314.5t-108.5 -356.5t-49 -360q0 -285 20 -436l8 -49h-67q-33 162 -33 405.5z" />
<glyph unicode=")" horiz-adv-x="454" d="M23 -242q70 106 151.5 270.5t141 315t108.5 356t49 359.5q0 285 -22 436l-7 49h68q33 -162 33 -405.5t-46 -450.5t-114 -364q-135 -328 -246 -496l-45 -70h-71z" />
<glyph unicode="*" horiz-adv-x="833" d="M373 938l225 164l-223 164l41 55l225 -166l86 264l66 -20l-86 -266h276v-70h-281l86 -264l-65 -21l-86 266l-225 -161z" />
<glyph unicode="+" d="M240 479v70h413v434h74v-434h418v-70h-418v-438h-74v438h-413z" />
<glyph unicode="," horiz-adv-x="387" d="M31 -264l176 434h82l-201 -434h-57z" />
<glyph unicode="-" horiz-adv-x="784" d="M262 516l17 72h499l-18 -72h-498z" />
<glyph unicode="." horiz-adv-x="366" d="M147 0l39 170h74l-39 -170h-74z" />
<glyph unicode="/" horiz-adv-x="790" d="M92 25l871 1409l67 -29l-870 -1407z" />
<glyph unicode="0" d="M217 342q0 174 40 347t113.5 329t199.5 255t298 99t272.5 -96t100.5 -283q0 -242 -70.5 -468t-222 -384.5t-341 -158.5t-290 93t-100.5 267zM291 354q0 -154 82 -229.5t221 -75.5t250.5 88t179.5 228q143 293 143 628q0 152 -81.5 232t-226 80t-257.5 -95.5t-178 -242.5 q-133 -303 -133 -613z" />
<glyph unicode="1" d="M524 1092l469 262h66l-309 -1354h-74l287 1257l-422 -231z" />
<glyph unicode="2" d="M143 0l15 61l602 498q193 158 292 278.5t99 247.5q0 221 -295 222q-160 0 -340 -37l-63 -15l4 64q211 55 399 55q369 0 369 -289q0 -143 -100.5 -271t-288.5 -279l-574 -467h760l-16 -68h-863z" />
<glyph unicode="3" d="M164 49l18 66q213 -66 392.5 -66t311.5 106.5t132 278.5q0 115 -68.5 181.5t-210.5 66.5h-268l18 68h267q127 0 252 98t125 242q0 115 -64.5 165t-179.5 50q-201 0 -373 -35l-57 -10l6 65q204 47 403 47q338 0 338 -268q0 -141 -86 -239.5t-213 -141.5 q184 -70 184.5 -283t-153.5 -335.5t-379 -122.5q-86 0 -185.5 16t-154.5 35z" />
<glyph unicode="4" d="M168 270l14 60l697 1022h84l-699 -1014h600l113 491h74l-113 -491h188l-16 -68h-188l-62 -270h-74l62 270h-680z" />
<glyph unicode="5" d="M156 43l20 66q223 -55 389 -56q205 0 349.5 148.5t144.5 361.5q0 102 -74 156.5t-211 54.5q-76 0 -173 -28.5t-157 -57.5l-59 -26l-68 8l209 682h750l-16 -68h-685l-169 -545q212 103 380 103q346 0 347 -279q0 -240 -168 -408.5t-408 -168.5q-164 0 -342 43z" />
<glyph unicode="6" d="M248 436q0 250 104 486q57 127 137 226t203 161.5t269 62.5q135 0 280 -29l45 -10l-18 -63q-168 35 -298 35t-218 -38t-148.5 -96.5t-111.5 -138.5q-82 -131 -127 -299q207 98 405.5 98t287.5 -81.5t89 -225.5q0 -244 -144.5 -393t-394.5 -149q-176 0 -268 117.5 t-92 336.5zM324 436q0 -387 282 -387q223 0 345 129t122 318q0 135 -68.5 201.5t-232.5 66.5q-86 0 -192.5 -25.5t-169.5 -50.5l-64 -26q-23 -68 -22 -226z" />
<glyph unicode="7" d="M340 10l831 1202l17 70h-719l16 70h797l-37 -154l-839 -1216z" />
<glyph unicode="8" d="M135 242q0 186 104.5 296.5t280.5 174.5q-106 41 -147 96t-41 140t29.5 153.5t92 131t178 100.5t269.5 38q408 0 408 -272q0 -121 -99.5 -235.5t-275.5 -151.5q133 -41 181 -104.5t48 -157.5q0 -39 -7 -83t-44 -118t-96.5 -129t-180 -97t-282.5 -42q-418 0 -418 260z M215 250q0 -94 92 -147.5t234.5 -53.5t233.5 27.5t147.5 69.5t95.5 96q70 92 69.5 196.5t-60.5 152.5t-200 85h-223q-162 -43 -275.5 -145.5t-113.5 -280.5zM406 958q0 -154 215 -217h223q78 14 157.5 49t153.5 115t74 188.5t-81 160t-265 51.5q-254 0 -365.5 -101.5 t-111.5 -245.5z" />
<glyph unicode="9" d="M160 25l28 65q168 -39 326 -39q422 0 567 559q-270 -86 -449 -86t-263 103q-55 66 -56 172q0 61 19 137q51 201 206.5 318.5t348.5 117.5q332 0 332 -379q0 -141 -50 -329q-92 -369 -261 -525.5t-412 -156.5q-143 0 -287 30zM393.5 800.5q-0.5 -69.5 42.5 -120.5 q70 -86 238 -86q127 0 354 65l74 23q41 172 41 297q0 324 -275 324q-164 0 -289.5 -98.5t-168.5 -268.5q-16 -66 -16.5 -135.5z" />
<glyph unicode=":" horiz-adv-x="366" d="M147 0l39 170h74l-39 -170h-74zM311 721l39 170h74l-39 -170h-74z" />
<glyph unicode=";" horiz-adv-x="446" d="M66 -264l176 434h82l-201 -434h-57zM356 721l39 170h74l-39 -170h-74z" />
<glyph unicode="&#x3c;" d="M207 477v74l868 442v-80l-801 -399l801 -399v-84z" />
<glyph unicode="=" d="M258 305v70h868v-70h-868zM258 651v70h868v-70h-868z" />
<glyph unicode="&#x3e;" d="M303 31v84l801 399l-801 399v80l868 -442v-74z" />
<glyph unicode="?" horiz-adv-x="825" d="M317 2l35 168h76l-37 -168h-74zM387 385q4 45 12 88q29 143 219.5 297t251 237t60.5 212q0 164 -246 163q-96 0 -246 -34l-51 -11v66q178 49 314.5 49t221.5 -56.5t85 -170t-35 -188t-98.5 -137t-221 -191.5t-180.5 -244l-16 -80h-70z" />
<glyph unicode="@" horiz-adv-x="1875" d="M188 180q0 154 48 355q119 510 368.5 721.5t708.5 211.5q184 0 316 -45t204 -120q129 -137 129 -383q0 -129 -40 -304.5t-84 -293t-84 -184t-94 -102.5t-99 -46t-111 -10q-174 0 -180 131q-258 -129 -393 -129q-168 0 -211 116q-20 57 -20.5 97.5t-0.5 74.5q2 43 19 136 q111 637 522 636q127 0 332 -41q-178 -698 -179 -854q0 -63 28 -80.5t88.5 -17.5t97 10.5t78.5 44t77 97.5q76 135 143 428q39 170 39 270t-24.5 192.5t-87.5 157.5q-143 147 -482 148q-408 0 -636 -194.5t-345 -667.5q-49 -205 -49 -317t21.5 -209t89.5 -173 q150 -168 510 -168l278 21l-10 -74q-193 -18 -315.5 -18t-242.5 30.5t-194.5 80.5t-123.5 126q-90 137 -91 346zM719 256q0 -201 172 -201q141 0 379 125q4 51 59 308t105 458q-123 31 -258 31q-180 0 -280.5 -141.5t-160.5 -432.5q-16 -84 -16 -147z" />
<glyph unicode="A" horiz-adv-x="1138" d="M66 0l759 1434h183l77 -1434h-73l-25 442h-612l-234 -442h-75zM412 508h571l-43 858h-74z" />
<glyph unicode="B" horiz-adv-x="1187" d="M176 0l330 1434h440q166 0 245 -59.5t79 -212t-84 -266.5t-205 -153q197 -51 197 -245q0 -236 -140.5 -367t-396.5 -131h-465zM266 68h391q211 0 327 114.5t116 313.5q0 117 -81 161.5t-224 44.5h-383zM426 770h385q170 0 276.5 115.5t106.5 283.5q0 113 -60.5 155 t-201.5 42h-369z" />
<glyph unicode="C" horiz-adv-x="1044" d="M248 389q0 293 112 563q127 307 340 432q121 68 261 68q152 0 284 -29l49 -10l-16 -65q-175 35 -322 35q-2 -1 -4 -1q-148 0 -272.5 -97t-200.5 -249q-153 -311 -153 -643q0 -178 74.5 -260t236.5 -82q156 0 287 29l47 10l-2 -67q-178 -41 -342 -41q-379 0 -379 407z" />
<glyph unicode="D" horiz-adv-x="1245" d="M176 0l332 1434h467q186 0 267 -102.5t81 -291t-41 -360.5t-118 -326.5t-208.5 -254t-293.5 -99.5h-486zM268 68h412q131 0 241.5 93t179 237.5t106.5 306t38 327.5t-64.5 250t-219.5 84h-396z" />
<glyph unicode="E" horiz-adv-x="1044" d="M176 0l332 1434h772l-16 -68h-699l-137 -596h584l-17 -68h-583l-146 -634h699l-17 -68h-772z" />
<glyph unicode="F" horiz-adv-x="993" d="M176 0l332 1434h752l-17 -68h-678l-149 -651h588l-17 -68h-588l-149 -647h-74z" />
<glyph unicode="G" horiz-adv-x="1177" d="M248 358q0 319 110 596q57 143 138.5 254t203 177.5t265.5 66.5q162 0 342 -39l55 -12l-21 -62q-209 45 -393 45q-125 0 -229.5 -65.5t-176 -172t-120.5 -241.5q-96 -256 -96 -547q0 -309 329 -309q129 0 279 33l51 12l127 547h-270l16 68h344l-155 -670 q-210 -57 -396 -57q-403 0 -403 376z" />
<glyph unicode="H" horiz-adv-x="1282" d="M176 0l332 1434h74l-158 -682h782l158 682h74l-332 -1434h-74l158 684h-782l-158 -684h-74z" />
<glyph unicode="I" horiz-adv-x="425" d="M176 0l332 1434h74l-332 -1434h-74z" />
<glyph unicode="J" horiz-adv-x="518" d="M14 -145l13 67q154 0 205 55.5t98 260.5l276 1196h74l-281 -1215q-29 -125 -49 -184.5t-62 -106.5t-103.5 -60t-170.5 -13z" />
<glyph unicode="K" horiz-adv-x="1040" d="M176 0l332 1434h74l-162 -693h225l594 693h88l-622 -725l290 -709h-77l-275 674h-237l-156 -674h-74z" />
<glyph unicode="L" horiz-adv-x="903" d="M176 0l332 1434h74l-316 -1366h635l-16 -68h-709z" />
<glyph unicode="M" horiz-adv-x="1585" d="M176 0l332 1434h149l148 -1323l786 1323h150l-332 -1434h-74l318 1366h-27l-782 -1323h-94l-156 1323h-29l-315 -1366h-74z" />
<glyph unicode="N" horiz-adv-x="1263" d="M176 0l332 1434h166l307 -1366h49l316 1366h73l-332 -1434h-161l-310 1366h-51l-315 -1366h-74z" />
<glyph unicode="O" horiz-adv-x="1302" d="M250 417q0 245 87 490.5t246.5 395t371.5 149.5t318.5 -102.5t106.5 -319.5q0 -274 -88 -526t-249.5 -387t-379 -135t-315.5 95t-98 340zM326 401q0 -192 80.5 -272t255 -80t299.5 92q166 125 254 378t88 513q0 182 -86.5 267t-247 85t-281.5 -88q-170 -125 -266 -385 t-96 -510z" />
<glyph unicode="P" horiz-adv-x="1120" d="M176 0l332 1434h477q297 0 297 -297q0 -260 -132 -436.5t-378 -176.5h-401l-121 -524h-74zM387 594h401q205 0 310.5 157.5t105.5 385.5q0 115 -55 171t-180 56h-404z" />
<glyph unicode="Q" horiz-adv-x="1302" d="M250 417q0 245 87 490.5t246.5 395t371.5 149.5t318.5 -102.5t106.5 -319.5q0 -274 -88 -526q-117 -334 -364 -465l98 -301l-70 -23l-96 295q-86 -28 -178 -28q-236 0 -334 95t-98 340zM326 401q0 -192 80.5 -272t255 -80t299.5 92q166 125 254 378t88 513 q0 182 -86.5 267t-247 85t-281.5 -88q-170 -125 -266 -385t-96 -510z" />
<glyph unicode="R" horiz-adv-x="1163" d="M176 0l332 1434h455q164 0 244.5 -71t80.5 -216.5t-39 -247.5t-102 -162q-119 -113 -256 -139l182 -598h-74l-180 590h-432l-137 -590h-74zM401 657h383q193 0 309.5 129t116.5 342q0 131 -62.5 184.5t-201.5 53.5h-381z" />
<glyph unicode="S" horiz-adv-x="1028" d="M123 16l14 68q242 -35 416 -35t281.5 116t107.5 310q0 102 -51 146.5t-216 90.5t-244 105.5t-79 190.5q0 217 138.5 330.5t373.5 113.5q135 0 299 -33l51 -10l-12 -61q-209 36 -352 36q-199 0 -310.5 -95t-111.5 -281q0 -98 62.5 -140.5t228.5 -91.5t233.5 -108.5 t67.5 -190.5q0 -227 -134 -361t-362 -134q-174 0 -340 26z" />
<glyph unicode="T" horiz-adv-x="976" d="M336 1366l16 68h930l-16 -68h-428l-316 -1366h-73l315 1366h-428z" />
<glyph unicode="U" horiz-adv-x="1214" d="M264 424l234 1010h73l-233 -1010q-21 -86 -21 -158q0 -215 324 -215q184 0 284.5 87t141.5 268l238 1028h73l-237 -1031q-49 -213 -167 -317t-319 -104q-411 0 -411 281q0 79 20 161z" />
<glyph unicode="V" horiz-adv-x="1101" d="M387 1434h74l41 -1366h110l674 1366h74l-705 -1434h-221z" />
<glyph unicode="W" horiz-adv-x="1648" d="M350 0l49 1434h74l-51 -1366h72l610 1345h78l-19 -1345h68l590 1366h73l-618 -1434h-182l20 1272l-577 -1272h-187z" />
<glyph unicode="X" horiz-adv-x="1042" d="M41 0l604 717l-254 717h74l237 -658l541 658h90l-602 -729l256 -705h-74l-237 647l-545 -647h-90z" />
<glyph unicode="Y" horiz-adv-x="993" d="M365 1434h73l211 -740l553 740h82l-616 -818l-144 -616h-73l145 631z" />
<glyph unicode="Z" horiz-adv-x="1019" d="M80 0l35 152l1048 1155l15 59h-777l17 68h850l-37 -160l-1049 -1155l-12 -51h776l-16 -68h-850z" />
<glyph unicode="[" horiz-adv-x="606" d="M104 -250l418 1780h355l-15 -68h-284l-388 -1644h285l-18 -68h-353z" />
<glyph unicode="\" horiz-adv-x="792" d="M389 1407l78 29l266 -1407l-78 -29z" />
<glyph unicode="]" horiz-adv-x="606" d="M27 -248l14 68h285l387 1644h-285l18 68h353l-418 -1780h-354z" />
<glyph unicode="^" d="M322 662l368 690h74l387 -690h-82l-342 616l-324 -616h-81z" />
<glyph unicode="_" horiz-adv-x="1316" d="M145 -240l17 78h919l-20 -78h-916z" />
<glyph unicode="`" horiz-adv-x="1060" d="M623 1425l36 52l328 -195l-37 -45z" />
<glyph unicode="a" horiz-adv-x="987" d="M252 602q57 180 178 310t277 130q104 0 294 -30l64 -11l-156 -667q-23 -94 -51 -277l-8 -55l-68 -4q35 213 45 260q-8 -10 -22 -29.5t-58.5 -66.5t-88.5 -84t-104.5 -66.5t-113.5 -29.5q-245 0 -245 258q0 182 57 362zM270 242q0 -96 43 -144.5t142 -48.5q111 0 301 209 q43 47 67 82l25 33l133 573q-150 31 -280 31t-233 -124t-150.5 -288t-47.5 -323z" />
<glyph unicode="b" horiz-adv-x="985" d="M156 23l340 1472h71l-149 -643q12 14 62 56t89 67q105 67 205 67q147 0 199.5 -74.5t52.5 -224.5q0 -162 -70 -354q-39 -106 -95 -196.5t-147 -150.5t-202 -60q-119 0 -297 30zM240 78q176 -31 281.5 -31t197.5 86t137 207q94 248 94 385t-38 193.5t-158 56.5 q-70 0 -159 -55.5t-144 -112.5l-56 -55z" />
<glyph unicode="c" horiz-adv-x="825" d="M203 264q0 446 237 662q127 116 303 116q98 0 191 -16l33 -6l-19 -64q-117 20 -205 21q-154 0 -262 -105q-202 -198 -202 -598q0 -115 58 -171t189 -56q76 0 195 29l41 10v-66q-134 -38 -246 -38h-6q-307 0 -307 282z" />
<glyph unicode="d" horiz-adv-x="985" d="M195 240q0 184 58 364t178 309t271 129q129 0 252 -24l41 -8l113 485h72l-346 -1495h-70l53 233q-8 -10 -21.5 -27.5t-56.5 -60.5t-86 -75.5t-105.5 -60t-119.5 -27.5q-233 0 -233 258zM270 240q0 -193 179 -193q49 0 108 32t109 77q100 92 153 163l25 33l137 594 q-143 31 -276.5 31t-236.5 -124t-150.5 -289t-47.5 -324z" />
<glyph unicode="e" horiz-adv-x="925" d="M199 266q0 135 33.5 268.5t98 249t172 187t242.5 71.5q266 0 267 -211q0 -174 -141.5 -246.5t-436.5 -72.5h-129q-31 -123 -31 -231.5t60.5 -169t148.5 -60.5q152 0 305 45l50 15v-68q-176 -61 -353 -61q-131 0 -208.5 74.5t-77.5 209.5zM319 578h134q252 0 368.5 54 t116.5 199.5t-195 145.5q-299 0 -424 -399z" />
<glyph unicode="f" horiz-adv-x="608" d="M76 -471l330 1429h-132l17 66h129l29 121q49 203 124.5 285.5t206.5 82.5q59 0 133 -12l25 -4l-16 -63q-86 14 -170 14t-136.5 -68.5t-95.5 -238.5l-28 -117h315l-19 -66h-309l-223 -958l-121 -471h-59z" />
<glyph unicode="g" horiz-adv-x="937" d="M49 -229q0 184 285 338q-27 23 -27 69.5t26.5 97t51.5 80.5l27 29q-143 57 -144 238q0 152 110 285.5t296 133.5q100 0 162 -30l305 12l-17 -72h-225q51 -66 51 -148.5t-24.5 -153t-73.5 -136t-137 -107.5t-199 -42l-53 4q-84 -109 -84 -176q0 -41 38 -57.5t186.5 -33 t216 -68.5t67.5 -161q0 -143 -145.5 -252.5t-379.5 -109.5q-143 0 -228 73.5t-85 186.5zM125 -222q0 -87 65.5 -144.5t188.5 -57.5q178 0 305 85t127 212q0 80 -52 113.5t-185.5 47t-186.5 36.5q-108 -54 -185 -129.5t-77 -162.5zM342 627q0 -197 190 -197q88 0 158 36 t109 91q78 106 78 211.5t-48.5 157t-162.5 51.5q-147 0 -235.5 -114.5t-88.5 -235.5z" />
<glyph unicode="h" horiz-adv-x="1001" d="M152 0l346 1495h71l-163 -707q203 254 380 254q111 0 173.5 -63.5t62.5 -172t-41 -280.5l-123 -526h-70l123 528q39 160 39 258q0 188 -176 189q-51 0 -110.5 -31t-106.5 -76q-94 -88 -156 -166l-22 -30l-156 -672h-71z" />
<glyph unicode="i" horiz-adv-x="372" d="M150 0l237 1024h72l-238 -1024h-71zM451 1307l28 123h74l-29 -123h-73z" />
<glyph unicode="j" horiz-adv-x="372" d="M-203 -428q201 100 254.5 164.5t98.5 263.5l237 1024h72l-238 -1024q-55 -236 -116.5 -310.5t-282.5 -178.5zM457 1315l26 119h72l-27 -119h-71z" />
<glyph unicode="k" horiz-adv-x="882" d="M152 0l346 1495h71l-207 -895h173l444 424h94l-483 -463l231 -561h-80l-223 535h-172l-123 -535h-71z" />
<glyph unicode="l" horiz-adv-x="399" d="M164 0l346 1495h72l-346 -1495h-72z" />
<glyph unicode="m" horiz-adv-x="1585" d="M150 0l237 1024h72l-53 -231q200 249 377 249h1q63 0 109.5 -21.5t69.5 -51.5q45 -66 49 -113l2 -20q20 23 54 57.5t128 91.5t189.5 57t158 -63.5t62.5 -166.5t-41 -286l-123 -526h-72l123 528q39 160 39 256.5t-47 143.5t-124 47t-162 -57.5t-134 -114.5l-49 -55 q-2 -78 -37 -222l-123 -526h-72l123 528q39 160 39 257.5t-46 143.5t-112.5 46t-126 -31t-108.5 -76q-100 -92 -152 -161l-22 -31l-158 -676h-71z" />
<glyph unicode="n" horiz-adv-x="999" d="M150 0l237 1024h72l-53 -231q200 249 377 249h1q111 0 173.5 -63.5t62.5 -168.5t-39 -278l-125 -532h-70l123 528q39 160 39 258q0 188 -176 189q-51 0 -110.5 -31t-108.5 -76q-100 -92 -152 -161l-22 -31l-158 -676h-71z" />
<glyph unicode="o" horiz-adv-x="1009" d="M203 285q0 319 147.5 538t364.5 219q323 0 323 -319q0 -317 -145 -529t-377 -212q-313 0 -313 303zM276 285q0 -238 240 -238q199 0 324 195.5t125 478.5q0 117 -62.5 186.5t-187.5 69.5q-190 0 -314.5 -204t-124.5 -488z" />
<glyph unicode="p" horiz-adv-x="983" d="M41 -471l346 1495h70l-54 -233q8 10 21.5 27.5t55.5 60.5t84 75.5t102.5 60t113.5 27.5q246 0 246 -270q0 -172 -56.5 -349t-177 -309t-274.5 -132q-135 0 -252 26l-41 8l-112 -487h-72zM240 80q143 -33 260.5 -33t204 74t137.5 186q108 240 108 465q0 203 -172 203 q-86 0 -183 -76t-157 -151l-61 -76z" />
<glyph unicode="q" horiz-adv-x="980" d="M324 766q61 121 160.5 198.5t215.5 77.5q125 0 304 -30l59 -11l-336 -1452h-70l156 682q-200 -249 -376 -249h-1q-243 0 -243 262q0 268 131 522zM268 276.5q0 -129.5 44 -178.5t143 -49q47 0 104 31t105 76q100 92 155 163l23 31l137 596q-139 31 -273.5 31t-237.5 -123 t-151.5 -285.5t-48.5 -292z" />
<glyph unicode="r" horiz-adv-x="622" d="M150 0l239 1024h70l-35 -156q205 129 403 176l-16 -71q-131 -33 -336 -142l-67 -34l-185 -797h-73z" />
<glyph unicode="s" horiz-adv-x="874" d="M111 14l14 66q184 -33 317 -33t233.5 71.5t100.5 211.5q0 78 -48 106.5t-191.5 60t-203 71.5t-59.5 132q0 145 109 243.5t281 98.5q113 0 266 -22l51 -6l-18 -64q-182 27 -314.5 27t-216.5 -78t-84 -186q0 -61 43 -91t187.5 -62t208 -74t63.5 -142q0 -174 -124 -268 t-310 -94q-117 0 -258 24z" />
<glyph unicode="t" horiz-adv-x="636" d="M285 373l137 585h-150l17 66h151l80 332h72l-82 -332h334l-17 -66h-333l-138 -585q-30 -131 -30 -205q0 -121 131 -121l172 14l-4 -63q-104 -16 -179 -16q-196 0 -196 174q0 78 35 217z" />
<glyph unicode="u" horiz-adv-x="999" d="M215 214q0 105 39 278l125 532h70l-123 -528q-39 -160 -39 -256.5t47 -143.5t113.5 -47t126 31t106.5 76q102 92 154 161l22 31l158 676h71l-237 -1024h-72l53 231q-200 -249 -377 -249h-1q-109 0 -172.5 63.5t-63.5 168.5z" />
<glyph unicode="v" horiz-adv-x="917" d="M301 1024h74l47 -958h82l508 958h78l-545 -1024h-193z" />
<glyph unicode="w" horiz-adv-x="1454" d="M307 1024h72l12 -958h33l483 938h92l41 -938h35l465 958h76l-496 -1024h-151l-35 915l-465 -915h-147z" />
<glyph unicode="x" horiz-adv-x="841" d="M55 0l437 512l-195 512h78l176 -465l389 465h88l-442 -518l192 -506h-80l-170 457l-385 -457h-88z" />
<glyph unicode="y" horiz-adv-x="917" d="M219 -467l252 467h-119l-51 1024h74l47 -958h82l508 958h78l-793 -1491h-78z" />
<glyph unicode="z" horiz-adv-x="860" d="M84 0l6 66l819 892h-606l16 66h695l-10 -66l-820 -892h609l-15 -66h-694z" />
<glyph unicode="{" horiz-adv-x="673" d="M197 598l16 72q135 37 187.5 94t76.5 180q6 29 17 88q20 125 41 189q51 158 145 231.5t266 81.5l-12 -74q-162 -8 -240 -78.5t-108 -218.5q-6 -33 -20.5 -116.5t-22.5 -118.5q-29 -133 -83 -193.5t-167 -97.5q131 -47 131 -178q0 -37 -51 -216.5t-51 -250.5 q0 -170 223 -170l-21 -74q-143 6 -208.5 60.5t-65.5 146.5t51 271.5t51 209.5q0 70 -36.5 106t-118.5 56z" />
<glyph unicode="|" horiz-adv-x="606" d="M385 -471v1966h72v-1966h-72z" />
<glyph unicode="}" horiz-adv-x="673" d="M23 -258l12 74q162 8 239.5 78.5t108.5 218.5q6 33 20.5 116.5t22.5 118.5q29 133 83 193.5t167 97.5q-131 47 -131 178q0 37 51 216t51 251q0 170 -223 170l20 74q143 -6 209 -60.5t66 -146.5t-51.5 -271.5t-51.5 -209.5q0 -70 37 -106t119 -56l-16 -72 q-135 -37 -187.5 -94t-76.5 -180q-6 -29 -17 -90q-20 -123 -41 -187q-51 -158 -145 -231.5t-266 -81.5z" />
<glyph unicode="~" d="M268 543q127 111 230 110q61 0 211.5 -74.5t187.5 -74.5t89 26.5t87 53.5l37 26l23 -63q-128 -113 -230 -113q-61 0 -211.5 75t-187.5 75t-89.5 -27t-86.5 -53l-37 -27z" />
<glyph unicode="&#xa1;" horiz-adv-x="387" d="M66 -410l241 1002h58l-232 -1002h-67zM346 854l39 170h74l-39 -170h-74z" />
<glyph unicode="&#xa2;" d="M332 328q0 78 26 178q55 211 168 320.5t271 113.5l63 268h68l-64 -266l219 -20l-20 -72q-182 20 -256 20q-139 0 -234.5 -97t-136.5 -267q-27 -127 -26.5 -191.5t53.5 -111.5t176 -47l274 16l-18 -70q-115 -14 -229 -14l-62 -260h-69l61 256q-264 0 -264 244z" />
<glyph unicode="&#xa3;" d="M170 0l16 68h197l158 696h-148l17 67h147l29 127q27 113 49 178.5t61 131.5q76 123 262 123q113 0 222 -17l41 -6l-15 -61q-152 16 -231.5 16t-116.5 -10t-64.5 -39t-45 -52.5t-35.5 -78.5q-20 -61 -54 -193l-28 -119h448l-16 -67h-449l-155 -696h346l166 32v-63 l-166 -37h-635z" />
<glyph unicode="&#xa4;" d="M274 154l146 143q-78 94 -78 218t78 220l-146 144l54 53l143 -146q94 78 219 78t219 -78l144 146l53 -53l-145 -144q78 -96 77.5 -220t-77.5 -218l145 -143l-53 -54l-144 146q-94 -78 -218 -78t-220 78l-143 -146zM418 516q0 -115 78 -194q79 -78 194 -78t195 78 q78 80 78 194.5t-78 194.5q-80 78 -195 77.5t-194 -77.5q-78 -80 -78 -195z" />
<glyph unicode="&#xa5;" d="M221 375l17 67h393l47 201l-10 37h-375l16 68h332l-242 606h78l252 -637l545 637h94l-524 -606h321l-14 -68h-365l-34 -41l-45 -197h389l-17 -67h-389l-88 -375h-72l86 375h-395z" />
<glyph unicode="&#xa6;" horiz-adv-x="626" d="M395 299h72v-770h-72v770zM395 725v770h72v-770h-72z" />
<glyph unicode="&#xa7;" horiz-adv-x="940" d="M92 -223l23 73q209 -29 313 -28q150 0 238 102.5t88 210.5q0 68 -45 97.5t-192.5 50t-210 76t-62.5 137.5t42 162.5t83 123.5l43 43q-41 59 -41 146q0 156 112.5 267.5t311.5 111.5q90 0 247 -21l48 -6l-21 -74q-199 27 -291 27q-158 0 -240.5 -82t-82.5 -219 q0 -84 46 -112.5t179 -51.5q268 -43 268 -207q0 -68 -38 -152.5t-74 -136.5l-37 -51q35 -41 35 -103.5t-21.5 -123t-66 -128t-132.5 -113.5t-202 -46q-119 0 -265 21zM319 519.5q0 -64.5 50.5 -104.5t185.5 -59.5t195 -54.5q127 170 127 285q0 59 -51.5 95t-192.5 59.5 t-172 50.5q-16 -16 -40 -42t-63 -95.5t-39 -134z" />
<glyph unicode="&#xa8;" horiz-adv-x="1619" d="M532 1296l31 134h60l-31 -134h-60zM891 1296l27 134h59l-31 -134h-55z" />
<glyph unicode="&#xa9;" horiz-adv-x="1323" d="M344 889q0 227 149.5 386t373 159t374 -159t150.5 -386t-150.5 -385t-374 -158t-373 158t-149.5 385zM410 889q0 -201 130 -339t326.5 -138t327.5 138t131 339t-131 340t-327.5 139t-326.5 -139t-130 -340zM643 887.5q0 154.5 47 234.5t176 80q80 0 131 -10l21 -4l-2 -66 q-84 14 -150 15q-100 0 -128.5 -57.5t-28.5 -188.5t32.5 -190.5t124.5 -59.5l150 16l2 -65q-89 -17 -152 -17q-127 0 -175 79t-48 233.5z" />
<glyph unicode="&#xaa;" horiz-adv-x="724" d="M330 895.5q0 30.5 6 58.5q18 76 62 113t128 43l209 14l13 47q6 29 6 53.5t-13.5 44t-68.5 19.5l-215 -14l8 59q145 16 227 17q131 0 131 -109q0 -31 -10 -72l-65 -280q12 -33 63 -43l-16 -55q-63 2 -101 45q-139 -45 -254 -45q-63 0 -92 45q-18 29 -18 59.5zM399 911 q0 -57 64 -57q82 0 184 27l33 10l41 174l-195 -12q-98 -6 -120 -103q-7 -23 -7 -39z" />
<glyph unicode="&#xab;" horiz-adv-x="864" d="M201 494l16 45l387 262l-24 -84l-295 -207l192 -225l-22 -72zM508 494l16 45l387 262l-24 -84l-295 -207l192 -225l-22 -72z" />
<glyph unicode="&#xac;" d="M266 610v70h864v-422h-73v352h-791z" />
<glyph unicode="&#xad;" horiz-adv-x="784" d="M262 516l17 72h499l-18 -72h-498z" />
<glyph unicode="&#xae;" horiz-adv-x="1323" d="M344 889q0 227 149.5 386t373 159t374 -159t150.5 -386t-150.5 -385t-374 -158t-373 158t-149.5 385zM410 889q0 -201 130 -339t326.5 -138t327.5 138t131 339t-131 340t-327.5 139t-326.5 -139t-130 -340zM657 586v604h191q121 0 176 -41t55 -141q0 -147 -121 -179 l134 -243h-74l-129 237h-166v-237h-66zM723 887h164q70 0 98.5 26.5t28.5 94t-39 93t-125 25.5h-127v-239z" />
<glyph unicode="&#xaf;" horiz-adv-x="868" d="M485 1325l13 53h518l-15 -53h-516z" />
<glyph unicode="&#xb0;" d="M563 1173.5q0 124.5 77 201.5t202 77t201.5 -77t76.5 -201.5t-76.5 -200.5t-201.5 -76t-202 76t-77 200.5zM633 1173.5q0 -96.5 57.5 -153.5t152.5 -57t153.5 58t58.5 153.5t-58.5 153.5t-153.5 58t-152.5 -58t-57.5 -154.5z" />
<glyph unicode="&#xb1;" d="M215 102v70h905v-70h-905zM215 631v69h414v283h73v-283h418v-69h-418v-295h-73v295h-414z" />
<glyph unicode="&#xb2;" horiz-adv-x="573" d="M301 979l16 70l254 213q166 137 166 235q0 70 -96 70q-63 0 -158 -19l-32 -6l12 68q113 27 199 26q154 0 153 -114q0 -98 -72 -183q-47 -53 -133 -125l-196 -165h303l-17 -70h-399z" />
<glyph unicode="&#xb3;" horiz-adv-x="573" d="M297 983l22 66q106 -18 209 -19q129 0 158 119q6 27 6 47q0 78 -96 78h-133l16 69h133q37 0 80 39q61 53 62 121q0 27 -17.5 45.5t-70.5 18.5q-80 0 -183 -15l-30 -4l10 66q115 23 211 22.5t128 -32t32 -66.5t-9 -65q-30 -117 -139 -160q88 -29 88 -94q0 -27 -10 -68 q-47 -190 -254 -190q-100 0 -182 16z" />
<glyph unicode="&#xb4;" horiz-adv-x="1099" d="M596 1300l416 195l12 -61l-418 -185z" />
<glyph unicode="&#xb5;" d="M109 -471l210 913l25 101l113 481h69l-110 -471h2l-33 -141q-20 -102 -20 -185.5t47 -130.5t113.5 -47t126 31t106.5 76q102 92 153 161l23 31l158 676h71l-237 -1024h-72l53 231q-201 -250 -369.5 -249.5t-224.5 124.5l-133 -577h-71z" />
<glyph unicode="&#xb6;" horiz-adv-x="1128" d="M305 985q0 164 132 306.5t321 142.5h633l-15 -74h-188l-324 -1360h-69l323 1360h-293l-325 -1360h-70l174 715q-150 2 -224.5 78.5t-74.5 191.5z" />
<glyph unicode="&#xb7;" horiz-adv-x="372" d="M274 553l37 170h78l-37 -170h-78z" />
<glyph unicode="&#xb8;" horiz-adv-x="1619" d="M668 -399l16 63q84 -8 150 -8q92 0 114 90q4 14 4 29q0 55 -75 55h-105l43 180h66l-31 -119h10q162 0 162 -106q0 -18 -4 -39q-35 -154 -195 -154z" />
<glyph unicode="&#xb9;" horiz-adv-x="573" d="M432 1481l236 137h73l-157 -639h-74l139 559l-196 -115z" />
<glyph unicode="&#xba;" horiz-adv-x="694" d="M350 954q0 55 15 115q37 150 105 214.5t187 64.5q174 0 174 -160q0 -57 -16 -133q-59 -270 -289 -271q-176 0 -176 170zM422 967q0 -109 119 -109q84 0 131 48t73 163q12 51 12.5 105.5t-26 77t-99.5 22.5t-121 -46t-75 -159q-14 -57 -14 -102z" />
<glyph unicode="&#xbb;" horiz-adv-x="991" d="M188 213l25 84l295 207l-193 225l23 72l254 -281l-17 -45zM623 213l24 84l295 207l-192 225l22 72l254 -281l-16 -45z" />
<glyph unicode="&#xbc;" horiz-adv-x="1161" d="M229 25l871 1409l67 -29l-870 -1407zM391 1481l236 137h73l-157 -639h-74l139 559l-196 -115zM678 117l16 65l295 457h82l-291 -453h213l45 179h74l-45 -179h76l-17 -69h-75l-29 -117h-74l29 117h-299z" />
<glyph unicode="&#xbd;" horiz-adv-x="1222" d="M229 25l871 1409l67 -29l-870 -1407zM391 1481l236 137h73l-157 -639h-74l139 559l-196 -115zM737 0l17 70l254 213q166 137 166 233q0 72 -97 72q-63 0 -159 -19l-31 -6l12 68q113 27 199 26q154 0 153 -114q0 -98 -71 -183q-47 -53 -133 -124l-197 -166h303l-16 -70 h-400z" />
<glyph unicode="&#xbe;" horiz-adv-x="1216" d="M289 25l870 1409l68 -29l-871 -1407zM311 983l23 66q106 -18 209 -19q129 0 157 119q6 27 7 47q0 78 -97 78h-133l17 69h133q37 0 82 39q59 53 59 121q0 27 -17.5 45.5t-70.5 18.5q-80 0 -184 -15l-29 -4l10 66q115 23 211 22.5t128 -32t32 -66.5t-8 -65 q-31 -113 -140 -160q88 -29 88 -94q0 -27 -10 -68q-47 -190 -254 -190q-100 0 -182 16zM737 117l17 65l295 457h81l-290 -453h213l45 179h73l-45 -179h76l-16 -69h-76l-29 -117h-73l28 117h-299z" />
<glyph unicode="&#xbf;" horiz-adv-x="800" d="M43 -199.5q0 113.5 35 188t98.5 137t221 191.5t180.5 244l16 80h70q-4 -45 -13 -88q-29 -143 -219 -297t-250.5 -236.5t-60.5 -212.5q0 -164 246 -163q96 0 247 32l50 13v-66q-178 -49 -314.5 -49t-221.5 56.5t-85 170zM623 856l36 168h74l-35 -168h-75z" />
<glyph unicode="&#xc0;" horiz-adv-x="1138" d="M66 0l759 1434h183l77 -1434h-73l-25 442h-612l-234 -442h-75zM412 508h571l-43 858h-74zM682 1823l35 55l327 -199l-30 -45z" />
<glyph unicode="&#xc1;" horiz-adv-x="1138" d="M66 0l759 1434h183l77 -1434h-73l-25 442h-612l-234 -442h-75zM412 508h571l-43 858h-74zM825 1686l418 196l19 -59l-420 -189z" />
<glyph unicode="&#xc2;" horiz-adv-x="1138" d="M66 0l759 1434h183l77 -1434h-73l-25 442h-612l-234 -442h-75zM412 508h571l-43 858h-74zM664 1645l319 262h29l198 -262h-69l-150 198l-243 -198h-84z" />
<glyph unicode="&#xc3;" horiz-adv-x="1138" d="M66 0l759 1434h183l77 -1434h-73l-25 442h-612l-234 -442h-75zM412 508h571l-43 858h-74zM641 1755q135 117 189.5 117t157 -64.5t124.5 -64.5q39 0 135 78l33 26l8 -51q-129 -117 -179 -117t-153.5 65.5t-126.5 65.5q-37 0 -149 -86l-37 -26z" />
<glyph unicode="&#xc4;" horiz-adv-x="1138" d="M66 0l759 1434h183l77 -1434h-73l-25 442h-612l-234 -442h-75zM412 508h571l-43 858h-74zM743 1702l29 135h62l-35 -135h-56zM1110 1702l33 135h59l-33 -135h-59z" />
<glyph unicode="&#xc5;" horiz-adv-x="1138" d="M66 0l737 1391q-49 31 -49 94q0 27 10 61q49 182 221 183q82 0 119 -46q23 -29 22.5 -65.5t-8.5 -71.5q-29 -109 -108 -153l75 -1393h-73l-25 442h-612l-234 -442h-75zM412 508h571l-43 858h-74zM813 1507q0 -55 47 -73h109q74 25 96 112q4 21 4 37q0 86 -98 86 q-123 0 -154 -123q-4 -20 -4 -39z" />
<glyph unicode="&#xc6;" horiz-adv-x="1632" d="M66 0l757 1434h1047l-12 -68l-703 4l-145 -600h587l-12 -68h-588l-149 -634h698l-12 -68h-772l100 440h-491l-234 -440h-71zM403 506h474l208 860h-229z" />
<glyph unicode="&#xc7;" horiz-adv-x="1044" d="M248 389q0 293 112 563q127 307 340 432q121 68 261 68q152 0 284 -29l49 -10l-16 -65q-178 35 -326.5 34.5t-272.5 -97.5t-200 -249q-154 -313 -153 -647q0 -174 74.5 -256t236.5 -82q156 0 287 29l47 10l-2 -67q-178 -41 -342 -41h-4l-23 -91h10q162 0 162 -106 q0 -18 -4 -39q-35 -154 -195 -154l-155 9l16 63q84 -8 150 -8q92 0 114 90q4 14 4 29q0 55 -75 55h-105l37 156q-311 33 -311 403z" />
<glyph unicode="&#xc8;" horiz-adv-x="1044" d="M176 0l332 1434h772l-16 -68h-699l-137 -596h584l-17 -68h-583l-146 -634h699l-17 -68h-772zM766 1823l35 55l327 -199l-30 -45z" />
<glyph unicode="&#xc9;" horiz-adv-x="1044" d="M176 0l332 1434h772l-16 -68h-699l-137 -596h584l-17 -68h-583l-146 -634h699l-17 -68h-772zM793 1686l417 196l19 -59l-420 -189z" />
<glyph unicode="&#xca;" horiz-adv-x="1044" d="M176 0l332 1434h772l-16 -68h-699l-137 -596h584l-17 -68h-583l-146 -634h699l-17 -68h-772zM813 1634l320 262h28l199 -262h-70l-149 199l-244 -199h-84z" />
<glyph unicode="&#xcb;" horiz-adv-x="1044" d="M176 0l332 1434h772l-16 -68h-699l-137 -596h584l-17 -68h-583l-146 -634h699l-17 -68h-772zM741 1702l29 135h61l-34 -135h-56zM1108 1702l33 135h59l-33 -135h-59z" />
<glyph unicode="&#xcc;" horiz-adv-x="425" d="M176 0l332 1434h74l-332 -1434h-74zM313 1823l35 55l328 -199l-31 -45z" />
<glyph unicode="&#xcd;" horiz-adv-x="425" d="M176 0l332 1434h74l-332 -1434h-74zM485 1686l418 196l19 -59l-420 -189z" />
<glyph unicode="&#xce;" horiz-adv-x="425" d="M176 0l332 1434h74l-332 -1434h-74zM309 1634l320 262h28l199 -262h-70l-149 199l-244 -199h-84z" />
<glyph unicode="&#xcf;" horiz-adv-x="425" d="M176 0l332 1434h74l-332 -1434h-74zM375 1702l28 135h62l-35 -135h-55zM741 1702l33 135h60l-33 -135h-60z" />
<glyph unicode="&#xd0;" horiz-adv-x="1249" d="M180 0l158 680h-156l15 78h159l156 676h467q186 0 267 -102.5t81 -291t-41 -360.5t-117.5 -326.5t-208.5 -254t-294 -99.5h-486zM272 68h412q131 0 241.5 93t179.5 237.5t106.5 306t37.5 327.5t-64.5 250t-219.5 84h-396l-139 -608h332l-19 -78h-331z" />
<glyph unicode="&#xd1;" horiz-adv-x="1263" d="M176 0l332 1434h166l307 -1366h49l316 1366h73l-332 -1434h-161l-310 1366h-51l-315 -1366h-74zM715 1751q135 117 189 117t156.5 -64.5t125.5 -64.5q39 0 135 78l33 26l8 -51q-129 -117 -179 -117t-153.5 65.5t-126.5 65.5q-37 0 -149 -86l-37 -26z" />
<glyph unicode="&#xd2;" horiz-adv-x="1302" d="M250 417q0 245 87 490.5t246.5 395t371.5 149.5t318.5 -102.5t106.5 -319.5q0 -274 -88 -526t-249.5 -387t-379 -135t-315.5 95t-98 340zM326 401q0 -192 80.5 -272t255 -80t299.5 92q166 125 254 378t88 513q0 182 -86.5 267t-247 85t-281.5 -88q-170 -125 -266 -385 t-96 -510zM834 1823l34 55l328 -199l-31 -45z" />
<glyph unicode="&#xd3;" horiz-adv-x="1302" d="M250 417q0 245 87 490.5t246.5 395t371.5 149.5t318.5 -102.5t106.5 -319.5q0 -274 -88 -526t-249.5 -387t-379 -135t-315.5 95t-98 340zM326 401q0 -192 80.5 -272t255 -80t299.5 92q166 125 254 378t88 513q0 182 -86.5 267t-247 85t-281.5 -88q-170 -125 -266 -385 t-96 -510zM903 1686l418 196l18 -59l-419 -189z" />
<glyph unicode="&#xd4;" horiz-adv-x="1302" d="M250 417q0 245 87 490.5t246.5 395t371.5 149.5t318.5 -102.5t106.5 -319.5q0 -274 -88 -526t-249.5 -387t-379 -135t-315.5 95t-98 340zM326 401q0 -192 80.5 -272t255 -80t299.5 92q166 125 254 378t88 513q0 182 -86.5 267t-247 85t-281.5 -88q-170 -125 -266 -385 t-96 -510zM762 1645l319 262h29l199 -262h-70l-149 198l-244 -198h-84z" />
<glyph unicode="&#xd5;" horiz-adv-x="1302" d="M250 417q0 245 87 490.5t246.5 395t371.5 149.5t318.5 -102.5t106.5 -319.5q0 -274 -88 -526t-249.5 -387t-379 -135t-315.5 95t-98 340zM326 401q0 -192 80.5 -272t255 -80t299.5 92q166 125 254 378t88 513q0 182 -86.5 267t-247 85t-281.5 -88q-170 -125 -266 -385 t-96 -510zM750 1751q135 117 189 117t156.5 -64.5t125.5 -64.5q39 0 135 78l33 26l8 -51q-129 -117 -179.5 -117t-153.5 65.5t-126 65.5q-37 0 -150 -86l-36 -26z" />
<glyph unicode="&#xd6;" horiz-adv-x="1302" d="M250 417q0 245 87 490.5t246.5 395t371.5 149.5t318.5 -102.5t106.5 -319.5q0 -274 -88 -526t-249.5 -387t-379 -135t-315.5 95t-98 340zM326 401q0 -192 80.5 -272t255 -80t299.5 92q166 125 254 378t88 513q0 182 -86.5 267t-247 85t-281.5 -88q-170 -125 -266 -385 t-96 -510zM827 1706l31 133h70l-31 -133h-70zM1196 1706l27 133h69l-30 -133h-66z" />
<glyph unicode="&#xd7;" d="M283 156l360 358l-360 358l49 50l358 -361l359 361l49 -50l-361 -358l361 -358l-49 -50l-359 361l-358 -361z" />
<glyph unicode="&#xd8;" horiz-adv-x="1302" d="M162 -193l184 271q-96 96 -96 340t87 489.5t246.5 395t353 149.5t296.5 -72l164 240l61 -29l-174 -254q96 -106 96 -307q0 -274 -88 -526t-249.5 -387t-353 -135t-292.5 57l-180 -264zM326 401q0 -172 65 -256l801 1174q-88 66 -235.5 65.5t-268.5 -88.5 q-170 -125 -266 -385t-96 -510zM440 102q82 -53 239 -53t282 92q166 125 254 378t88 513q0 156 -64 240l-401 -592z" />
<glyph unicode="&#xd9;" horiz-adv-x="1214" d="M244 264q0 78 20 160l234 1010h73l-233 -1010q-21 -86 -21 -158q0 -215 324 -215q184 0 284.5 87t141.5 268l238 1028h73l-237 -1031q-49 -213 -167 -317t-319 -104q-412 0 -411 282zM774 1823l35 55l328 -199l-31 -45z" />
<glyph unicode="&#xda;" horiz-adv-x="1214" d="M244 264q0 78 20 160l234 1010h73l-233 -1010q-21 -86 -21 -158q0 -215 324 -215q184 0 284.5 87t141.5 268l238 1028h73l-237 -1031q-49 -213 -167 -317t-319 -104q-412 0 -411 282zM807 1686l418 196l18 -59l-420 -189z" />
<glyph unicode="&#xdb;" horiz-adv-x="1214" d="M244 264q0 78 20 160l234 1010h73l-233 -1010q-21 -86 -21 -158q0 -215 324 -215q184 0 284.5 87t141.5 268l238 1028h73l-237 -1031q-49 -213 -167 -317t-319 -104q-412 0 -411 282zM696 1645l320 262h28l199 -262h-69l-150 198l-244 -198h-84z" />
<glyph unicode="&#xdc;" horiz-adv-x="1214" d="M244 264q0 78 20 160l234 1010h73l-233 -1010q-21 -86 -21 -158q0 -215 324 -215q184 0 284.5 87t141.5 268l238 1028h73l-237 -1031q-49 -213 -167 -317t-319 -104q-412 0 -411 282zM760 1706l31 133h69l-31 -133h-69zM1128 1706l27 133h70l-31 -133h-66z" />
<glyph unicode="&#xdd;" horiz-adv-x="993" d="M365 1434h73l211 -740l553 740h82l-616 -818l-144 -616h-73l145 631zM688 1686l418 196l18 -59l-419 -189z" />
<glyph unicode="&#xde;" horiz-adv-x="1138" d="M174 0l336 1434h74l-58 -248h400q315 0 315 -283q0 -68 -18 -151q-47 -217 -173 -347.5t-327 -130.5h-412l-63 -274h-74zM328 340h411q303 0 408 412q20 80 20 143q0 225 -258 225h-397z" />
<glyph unicode="&#xdf;" horiz-adv-x="1069" d="M150 0l256 1096q53 229 148 323t271 94q289 0 289 -213q0 -123 -54 -198.5t-148.5 -125.5t-128 -79t-33.5 -70t22.5 -67.5t122.5 -88t139 -108.5t39 -147q0 -199 -122 -316.5t-343 -117.5q-80 0 -178 22l-33 6l11 66q129 -29 208 -29q178 0 280.5 99.5t102.5 267.5 q0 74 -33.5 114.5t-130 100t-127 99.5t-30.5 98.5t40 100.5t163 107q160 86 159 256q0 82 -50 120t-185 38t-211 -81t-121 -277l-254 -1090h-69z" />
<glyph unicode="&#xe0;" horiz-adv-x="987" d="M195 242q0 180 57 360t178 310t277 130q104 0 294 -30l64 -11l-156 -667q-23 -94 -51 -277l-8 -55l-68 -4q35 213 45 260q-8 -10 -22 -29.5t-58.5 -66.5t-88.5 -84t-104.5 -66.5t-113.5 -29.5q-246 0 -245 260zM270 242q0 -96 43 -144.5t142 -48.5q111 0 301 209 q43 47 67 82l25 33l133 573q-150 31 -280 31t-233 -124t-150.5 -288t-47.5 -323zM639 1425l37 52l328 -195l-37 -45z" />
<glyph unicode="&#xe1;" horiz-adv-x="987" d="M195 242q0 180 57 360t178 310t277 130q104 0 294 -30l64 -11l-156 -667q-23 -94 -51 -277l-8 -55l-68 -4q35 213 45 260q-8 -10 -22 -29.5t-58.5 -66.5t-88.5 -84t-104.5 -66.5t-113.5 -29.5q-246 0 -245 260zM270 242q0 -96 43 -144.5t142 -48.5q111 0 301 209 q43 47 67 82l25 33l133 573q-150 31 -280 31t-233 -124t-150.5 -288t-47.5 -323zM692 1300l416 195l12 -61l-418 -185z" />
<glyph unicode="&#xe2;" horiz-adv-x="987" d="M195 242q0 180 57 360t178 310t277 130q104 0 294 -30l64 -11l-156 -667q-23 -94 -51 -277l-8 -55l-68 -4q35 213 45 260q-8 -10 -22 -29.5t-58.5 -66.5t-88.5 -84t-104.5 -66.5t-113.5 -29.5q-246 0 -245 260zM270 242q0 -96 43 -144.5t142 -48.5q111 0 301 209 q43 47 67 82l25 33l133 573q-150 31 -280 31t-233 -124t-150.5 -288t-47.5 -323zM532 1219l299 276h46l178 -276h-78l-131 206l-225 -206h-89z" />
<glyph unicode="&#xe3;" horiz-adv-x="987" d="M195 242q0 180 57 360t178 310t277 130q104 0 294 -30l64 -11l-156 -667q-23 -94 -51 -277l-8 -55l-68 -4q35 213 45 260q-8 -10 -22 -29.5t-58.5 -66.5t-88.5 -84t-104.5 -66.5t-113.5 -29.5q-246 0 -245 260zM270 242q0 -96 43 -144.5t142 -48.5q111 0 301 209 q43 47 67 82l25 33l133 573q-150 31 -280 31t-233 -124t-150.5 -288t-47.5 -323zM563 1366q119 94 180 94q39 0 133.5 -52t114.5 -52q39 0 117 61l27 23l10 -62q-103 -88 -162 -88q-37 0 -135 52.5t-119 52.5q-37 0 -131 -70l-31 -22z" />
<glyph unicode="&#xe4;" horiz-adv-x="987" d="M195 242q0 180 57 360t178 310t277 130q104 0 294 -30l64 -11l-156 -667q-23 -94 -51 -277l-8 -55l-68 -4q35 213 45 260q-8 -10 -22 -29.5t-58.5 -66.5t-88.5 -84t-104.5 -66.5t-113.5 -29.5q-246 0 -245 260zM270 242q0 -96 43 -144.5t142 -48.5q111 0 301 209 q43 47 67 82l25 33l133 573q-150 31 -280 31t-233 -124t-150.5 -288t-47.5 -323zM578 1296l30 134h70l-31 -134h-69zM946 1296l27 134h69l-30 -134h-66z" />
<glyph unicode="&#xe5;" horiz-adv-x="987" d="M195 242q0 180 57 360t178 310t277 130q104 0 294 -30l64 -11l-156 -667q-23 -94 -51 -277l-8 -55l-68 -4q35 213 45 260q-8 -10 -22 -29.5t-58.5 -66.5t-88.5 -84t-104.5 -66.5t-113.5 -29.5q-246 0 -245 260zM270 242q0 -96 43 -144.5t142 -48.5q111 0 301 209 q43 47 67 82l25 33l133 573q-150 31 -280 31t-233 -124t-150.5 -288t-47.5 -323zM692 1315q0 113 69.5 175t156.5 62q133 0 133 -143q0 -96 -66 -162.5t-158 -66.5q-135 0 -135 135zM750 1327.5q0 -22.5 21.5 -55.5t71.5 -33t91 37q59 51 59 121q0 29 -20.5 60.5t-70.5 31.5 t-94 -36t-54 -87q-4 -16 -4 -38.5z" />
<glyph unicode="&#xe6;" horiz-adv-x="1581" d="M141 193q0 41 9 90q27 143 122 207.5t266 89t324 36.5q41 139 41 173t-3 55.5t-15 54.5q-29 66 -144 66q-94 0 -307 -15l-59 -4l12 76q217 20 371 20q94 0 155.5 -51t63.5 -143q133 195 383 194q281 0 280 -278q0 -104 -28 -213l-19 -72l-675 4q-31 -137 -31 -229 q0 -199 213 -199q147 0 301 15l57 4l-14 -74q-221 -18 -361 -18q-188 -1 -247 118q-301 -119 -498 -118.5t-197 211.5zM223 205q0 -150 131 -150q162 0 463 111q-14 76 -9 124t6 62.5t8 50t9 43.5q4 51 21 99q-262 -29 -364.5 -46.5t-166 -67.5t-88.5 -148q-10 -41 -10 -78z M932 553l602 -4q33 119 33 217q0 203 -224 203q-154 0 -257 -98.5t-154 -317.5z" />
<glyph unicode="&#xe7;" horiz-adv-x="825" d="M203 264q0 446 237 662q127 117 303 116q98 0 191 -16l33 -6l-19 -64q-117 20 -205 21q-154 0 -262 -105q-203 -199 -202 -602q0 -111 58 -167t189 -56q76 0 195 29l41 10v-66q-137 -39 -252 -38h-21l-22 -91h10q162 0 162 -106q0 -18 -4 -39q-35 -154 -195 -154l-155 9 l16 63q84 -8 150 -8q92 0 114 90q4 14 4 29q0 55 -75 55h-105l37 158q-223 33 -223 276z" />
<glyph unicode="&#xe8;" horiz-adv-x="925" d="M199 266q0 135 33.5 268.5t98 249t172 187t242.5 71.5q266 0 267 -211q0 -174 -141.5 -246.5t-436.5 -72.5h-129q-31 -123 -31 -231.5t60.5 -169t148.5 -60.5q152 0 305 45l50 15v-68q-176 -61 -353 -61q-131 0 -208.5 74.5t-77.5 209.5zM319 578h134q252 0 368.5 54 t116.5 199.5t-195 145.5q-299 0 -424 -399zM487 1425l37 52l328 -195l-37 -45z" />
<glyph unicode="&#xe9;" horiz-adv-x="925" d="M199 266q0 135 33.5 268.5t98 249t172 187t242.5 71.5q266 0 267 -211q0 -174 -141.5 -246.5t-436.5 -72.5h-129q-31 -123 -31 -231.5t60.5 -169t148.5 -60.5q152 0 305 45l50 15v-68q-176 -61 -353 -61q-131 0 -208.5 74.5t-77.5 209.5zM319 578h134q252 0 368.5 54 t116.5 199.5t-195 145.5q-299 0 -424 -399zM631 1300l416 195l12 -61l-418 -185z" />
<glyph unicode="&#xea;" horiz-adv-x="925" d="M199 266q0 135 33.5 268.5t98 249t172 187t242.5 71.5q266 0 267 -211q0 -174 -141.5 -246.5t-436.5 -72.5h-129q-31 -123 -31 -231.5t60.5 -169t148.5 -60.5q152 0 305 45l50 15v-68q-176 -61 -353 -61q-131 0 -208.5 74.5t-77.5 209.5zM319 578h134q252 0 368.5 54 t116.5 199.5t-195 145.5q-299 0 -424 -399zM498 1219l299 276h45l178 -276h-78l-131 206l-225 -206h-88z" />
<glyph unicode="&#xeb;" horiz-adv-x="925" d="M199 266q0 135 33.5 268.5t98 249t172 187t242.5 71.5q266 0 267 -211q0 -174 -141.5 -246.5t-436.5 -72.5h-129q-31 -123 -31 -231.5t60.5 -169t148.5 -60.5q152 0 305 45l50 15v-68q-176 -61 -353 -61q-131 0 -208.5 74.5t-77.5 209.5zM319 578h134q252 0 368.5 54 t116.5 199.5t-195 145.5q-299 0 -424 -399zM575 1296l31 134h70l-31 -134h-70zM944 1296l27 134h69l-30 -134h-66z" />
<glyph unicode="&#xec;" horiz-adv-x="372" d="M150 0l237 1024h72l-238 -1024h-71zM164 1425l37 52l327 -195l-36 -45z" />
<glyph unicode="&#xed;" horiz-adv-x="372" d="M150 0l237 1024h72l-238 -1024h-71zM403 1300l416 195l12 -61l-417 -185z" />
<glyph unicode="&#xee;" horiz-adv-x="372" d="M150 0l237 1024h72l-238 -1024h-71zM193 1219l299 276h45l178 -276h-78l-131 206l-225 -206h-88z" />
<glyph unicode="&#xef;" horiz-adv-x="372" d="M150 0l237 1024h72l-238 -1024h-71zM231 1296l31 134h70l-31 -134h-70zM600 1296l27 134h69l-30 -134h-66z" />
<glyph unicode="&#xf0;" horiz-adv-x="1044" d="M170 276q0 268 154.5 432t367.5 164q68 0 154 -22.5t137 -44.5l53 -23q10 55 11 109q0 244 -207 401l-262 -157l-33 57l233 141q-100 61 -225 105l39 69q154 -51 262 -127l229 140l33 -60l-205 -123q211 -174 211 -432q0 -80 -20 -168q-94 -399 -241.5 -577t-354.5 -178 q-174 0 -255 82.5t-81 211.5zM252 285q0 -102 67.5 -164t202.5 -62q334 0 498 643q-76 37 -177.5 65t-162.5 28q-180 0 -304 -147.5t-124 -362.5z" />
<glyph unicode="&#xf1;" horiz-adv-x="999" d="M150 0l237 1024h72l-53 -231l20 26q45 59 137 135q45 37 105.5 62.5t115.5 25.5q111 0 173.5 -63.5t62.5 -168.5t-39 -278l-125 -532h-70l123 528q39 160 39 257.5t-45 143.5t-113.5 46t-129 -33t-105.5 -72t-97 -97t-79 -97l-158 -676h-71zM526 1366q119 94 181 94 q39 0 133 -52t114 -52q39 0 117 61l27 23l10 -62q-103 -88 -162 -88q-37 0 -135 52.5t-119 52.5q-37 0 -131 -70l-31 -22z" />
<glyph unicode="&#xf2;" horiz-adv-x="1009" d="M203 285q0 319 147.5 538t364.5 219q324 0 323 -321q0 -315 -145 -527t-377 -212q-313 0 -313 303zM276 285q0 -238 240 -238q199 0 324 195.5t125 478.5q0 117 -62.5 186.5t-187.5 69.5q-190 0 -314.5 -204t-124.5 -488zM543 1425l37 52l327 -195l-37 -45z" />
<glyph unicode="&#xf3;" horiz-adv-x="1009" d="M203 285q0 319 147.5 538t364.5 219q324 0 323 -321q0 -315 -145 -527t-377 -212q-313 0 -313 303zM276 285q0 -238 240 -238q199 0 324 195.5t125 478.5q0 117 -62.5 186.5t-187.5 69.5q-190 0 -314.5 -204t-124.5 -488zM635 1300l416 195l12 -61l-418 -185z" />
<glyph unicode="&#xf4;" horiz-adv-x="1009" d="M203 285q0 319 147.5 538t364.5 219q324 0 323 -321q0 -315 -145 -527t-377 -212q-313 0 -313 303zM276 285q0 -238 240 -238q199 0 324 195.5t125 478.5q0 117 -62.5 186.5t-187.5 69.5q-190 0 -314.5 -204t-124.5 -488zM530 1219l299 276h45l179 -276h-78l-131 206 l-226 -206h-88z" />
<glyph unicode="&#xf5;" horiz-adv-x="1009" d="M203 285q0 319 147.5 538t364.5 219q324 0 323 -321q0 -315 -145 -527t-377 -212q-313 0 -313 303zM276 285q0 -238 240 -238q199 0 324 195.5t125 478.5q0 117 -62.5 186.5t-187.5 69.5q-190 0 -314.5 -204t-124.5 -488zM510 1366q119 94 180 94q39 0 133.5 -52 t114.5 -52q39 0 117 61l26 23l11 -62q-103 -88 -162 -88q-37 0 -135.5 52.5t-118.5 52.5q-37 0 -131 -70l-31 -22z" />
<glyph unicode="&#xf6;" horiz-adv-x="1009" d="M203 285q0 319 147.5 538t364.5 219q324 0 323 -321q0 -315 -145 -527t-377 -212q-313 0 -313 303zM276 285q0 -238 240 -238q199 0 324 195.5t125 478.5q0 117 -62.5 186.5t-187.5 69.5q-190 0 -314.5 -204t-124.5 -488zM584 1296l30 134h60l-31 -134h-59zM942 1296 l27 134h59l-31 -134h-55z" />
<glyph unicode="&#xf7;" d="M238 479v70h909v-70h-909zM653 80v164h78v-164h-78zM653 784v164h78v-164h-78z" />
<glyph unicode="&#xf8;" horiz-adv-x="1007" d="M129 -209l162 258q-86 74 -86 240q0 319 147.5 538.5t364.5 219.5q102 0 176 -35l141 225l56 -25l-148 -233q98 -80 98 -254q0 -315 -145 -527t-377 -212q-102 0 -178 32l-156 -249zM279 289q0 -113 55 -172l256 405l264 426q-59 33 -137 33q-190 0 -314 -204t-124 -488z M379 82q55 -31 139 -31q199 0 324 195.5t125 478.5q0 119 -66 188z" />
<glyph unicode="&#xf9;" horiz-adv-x="999" d="M215 214q0 105 39 278l125 532h70l-123 -528q-39 -160 -39 -256.5t47 -143.5t113.5 -47t126 31t106.5 76q102 92 154 161l22 31l158 676h71l-237 -1024h-72l53 231q-201 -250 -378 -249q-109 0 -172.5 63.5t-63.5 168.5zM545 1425l37 52l327 -195l-37 -45z" />
<glyph unicode="&#xfa;" horiz-adv-x="999" d="M215 214q0 105 39 278l125 532h70l-123 -528q-39 -160 -39 -256.5t47 -143.5t113.5 -47t126 31t106.5 76q102 92 154 161l22 31l158 676h71l-237 -1024h-72l53 231q-201 -250 -378 -249q-109 0 -172.5 63.5t-63.5 168.5zM666 1300l415 195l13 -61l-418 -185z" />
<glyph unicode="&#xfb;" horiz-adv-x="999" d="M215 214q0 105 39 278l125 532h70l-123 -528q-39 -160 -39 -256.5t47 -143.5t113.5 -47t126 31t106.5 76q102 92 154 161l22 31l158 676h71l-237 -1024h-72l53 231q-201 -250 -378 -249q-109 0 -172.5 63.5t-63.5 168.5zM481 1219l299 276h45l179 -276h-78l-131 206 l-226 -206h-88z" />
<glyph unicode="&#xfc;" horiz-adv-x="999" d="M215 214q0 105 39 278l125 532h70l-123 -528q-39 -160 -39 -256.5t47 -143.5t113.5 -47t126 31t106.5 76q102 92 154 161l22 31l158 676h71l-237 -1024h-72l53 231q-201 -250 -378 -249q-109 0 -172.5 63.5t-63.5 168.5zM553 1296l31 134h69l-30 -134h-70zM922 1296 l26 134h70l-31 -134h-65z" />
<glyph unicode="&#xfd;" horiz-adv-x="917" d="M219 -467l252 467h-119l-51 1024h74l47 -958h82l508 958h78l-793 -1491h-78zM604 1300l416 195l12 -61l-418 -185z" />
<glyph unicode="&#xfe;" horiz-adv-x="972" d="M39 -467l463 1958h69l-143 -594q78 63 177 104t169 41q242 0 242 -305q0 -100 -29 -205q-76 -281 -198.5 -415.5t-335.5 -134.5q-109 0 -171.5 11t-62.5 13l-113 -473h-67zM233 80l232 -25q180 0 280.5 112t172.5 368q25 84 24.5 154.5t-10.5 131t-55.5 104.5t-104.5 44 t-113.5 -17.5t-97.5 -42.5q-88 -47 -135 -86l-20 -14z" />
<glyph unicode="&#xff;" horiz-adv-x="917" d="M219 -467l252 467h-119l-51 1024h74l47 -958h82l508 958h78l-793 -1491h-78zM508 1296l31 134h69l-30 -134h-70zM877 1296l26 134h70l-31 -134h-65z" />
<glyph unicode="&#x152;" horiz-adv-x="1794" d="M236 350q0 139 51 357q90 375 246.5 560t437.5 185q115 0 299 -18h762l-15 -78h-692l-141 -580h575l-14 -78l-576 4l-147 -624h692l-20 -80h-760q-200 -16 -309 -16q-205 0 -297 92t-92 276zM311 352.5q0 -143.5 77 -218.5t253 -75q113 0 307 19l303 1282 q-125 14 -297 14q-250 0 -381 -160.5t-211 -502.5q-51 -215 -51 -358.5z" />
<glyph unicode="&#x153;" horiz-adv-x="1691" d="M195 225q0 127 43 310q66 276 181.5 391.5t338.5 115.5q276 0 295 -245q125 246 412.5 245.5t287.5 -280.5q0 -90 -31 -213l-18 -70l-684 4q-35 -139 -35 -230t52.5 -144.5t182 -53t283.5 14.5l60 4l-11 -74q-221 -18 -364 -18q-248 0 -275 219q-59 -115 -155 -167 t-254 -52t-233.5 58t-75.5 185zM268 242.5q0 -97.5 58.5 -142.5t170 -45t175 22.5t104.5 57.5t76 103q53 106 91 259.5t38 222t-10 107.5q-37 141 -222.5 141.5t-280.5 -96t-147.5 -314.5t-52.5 -315.5zM1036 553l609 -4q31 123 30 221q0 199 -225 199q-315 0 -414 -416z " />
<glyph unicode="&#x178;" horiz-adv-x="993" d="M365 1434h73l211 -740l553 740h82l-616 -818l-144 -616h-73l145 631zM643 1700l29 135h61l-35 -135h-55zM1010 1700l32 135h60l-33 -135h-59z" />
<glyph unicode="&#x2c6;" horiz-adv-x="1619" d="M829 1219l299 276h29l178 -276h-69l-131 206l-226 -206h-80z" />
<glyph unicode="&#x2dc;" horiz-adv-x="847" d="M479 1366q119 94 180 94q39 0 133.5 -52t114.5 -52q39 0 117 61l27 23l10 -62q-103 -88 -162 -88q-37 0 -135 52.5t-121 52.5q-35 0 -129 -70l-31 -22z" />
<glyph unicode="&#x2000;" horiz-adv-x="953" />
<glyph unicode="&#x2001;" horiz-adv-x="1907" />
<glyph unicode="&#x2002;" horiz-adv-x="953" />
<glyph unicode="&#x2003;" horiz-adv-x="1907" />
<glyph unicode="&#x2004;" horiz-adv-x="635" />
<glyph unicode="&#x2005;" horiz-adv-x="476" />
<glyph unicode="&#x2006;" horiz-adv-x="317" />
<glyph unicode="&#x2007;" horiz-adv-x="317" />
<glyph unicode="&#x2008;" horiz-adv-x="238" />
<glyph unicode="&#x2009;" horiz-adv-x="381" />
<glyph unicode="&#x200a;" horiz-adv-x="105" />
<glyph unicode="&#x2010;" horiz-adv-x="784" d="M262 516l17 72h499l-18 -72h-498z" />
<glyph unicode="&#x2011;" horiz-adv-x="784" d="M262 516l17 72h499l-18 -72h-498z" />
<glyph unicode="&#x2012;" horiz-adv-x="784" d="M262 516l17 72h499l-18 -72h-498z" />
<glyph unicode="&#x2013;" horiz-adv-x="1310" d="M270 516v70h1024v-70h-1024z" />
<glyph unicode="&#x2014;" horiz-adv-x="2334" d="M270 516v70h2048v-70h-2048z" />
<glyph unicode="&#x2018;" horiz-adv-x="378" d="M350 1020l191 414h55l-168 -414h-78z" />
<glyph unicode="&#x2019;" horiz-adv-x="378" d="M356 1020l168 414h78l-190 -414h-56z" />
<glyph unicode="&#x201a;" horiz-adv-x="382" d="M41 -233l168 413h78l-191 -413h-55z" />
<glyph unicode="&#x201c;" horiz-adv-x="659" d="M350 1020l191 414h55l-168 -414h-78zM631 1020l190 414h56l-168 -414h-78z" />
<glyph unicode="&#x201d;" horiz-adv-x="659" d="M356 1020l168 414h78l-190 -414h-56zM637 1020l168 414h78l-191 -414h-55z" />
<glyph unicode="&#x201e;" horiz-adv-x="634" d="M27 -229l190 413h55l-168 -413h-77zM293 -229l190 413h56l-168 -413h-78z" />
<glyph unicode="&#x2022;" horiz-adv-x="1030" d="M379 225v594h512v-594h-512z" />
<glyph unicode="&#x2026;" horiz-adv-x="1347" d="M150 0l38 170h74l-39 -170h-73zM643 0l39 170h74l-39 -170h-74zM1126 0l39 170h74l-39 -170h-74z" />
<glyph unicode="&#x202f;" horiz-adv-x="381" />
<glyph unicode="&#x2039;" horiz-adv-x="557" d="M201 494l16 45l387 262l-24 -84l-295 -207l192 -225l-22 -72z" />
<glyph unicode="&#x203a;" horiz-adv-x="557" d="M188 213l25 84l295 207l-193 225l23 72l254 -281l-17 -45z" />
<glyph unicode="&#x205f;" horiz-adv-x="476" />
<glyph unicode="&#x20ac;" d="M217 465l16 65h91q16 139 57 267h-88l16 65h94q84 227 232.5 368.5t351.5 141.5q131 0 270 -29l46 -8l-15 -61q-170 33 -323.5 33t-280.5 -123t-203 -322h627l-14 -65h-637q-45 -135 -60 -267h635l-14 -65h-627q-4 -33 -4 -96q0 -164 70.5 -242t224.5 -78q135 0 270 29 l45 8l-2 -66q-167 -38 -323 -38q-358 0 -359 387q0 31 4 96h-100z" />
<glyph unicode="&#x2122;" horiz-adv-x="1445" d="M455 1208v64h409v-64h-170v-528h-67v528h-172zM936 678v594h102l172 -496l179 496h102v-594h-66v528l-180 -506h-71l-173 506v-528h-65z" />
<glyph unicode="&#x25fc;" horiz-adv-x="1024" d="M0 0v1024h1024v-1024h-1024z" />
</font>
</defs>
</svg>
