<?xml version="1.0" standalone="no"?>
<!DOCTYPE svg PUBLIC "-//W3C//DTD SVG 1.1//EN" "http://www.w3.org/Graphics/SVG/1.1/DTD/svg11.dtd" >
<svg xmlns="http://www.w3.org/2000/svg" xmlns:xlink="http://www.w3.org/1999/xlink" version="1.1">
<metadata></metadata>
<defs>
<font id="titillium_weblight_italic" horiz-adv-x="1146" >
<font-face units-per-em="2048" ascent="1638" descent="-410" />
<missing-glyph horiz-adv-x="450" />
<glyph horiz-adv-x="0" />
<glyph unicode="&#xd;" horiz-adv-x="681" />
<glyph unicode=" "  horiz-adv-x="450" />
<glyph unicode="&#x09;" horiz-adv-x="450" />
<glyph unicode="&#xa0;" horiz-adv-x="450" />
<glyph unicode="!" horiz-adv-x="401" d="M143 0l47 205h125l-47 -205h-125zM246 457l223 977h123l-238 -977h-108z" />
<glyph unicode="&#x22;" horiz-adv-x="643" d="M424 971l104 452h117l-110 -452h-111zM551 971l104 452h117l-110 -452h-111z" />
<glyph unicode="#" d="M135 377l27 106h233l99 402h-234l27 106h233l96 375h115l-96 -375h342l96 375h115l-96 -375h233l-27 -106h-233l-98 -402h233l-26 -106h-234l-92 -377h-115l92 377h-342l-92 -377h-115l93 377h-234zM510 483h342l98 402h-342z" />
<glyph unicode="$" d="M197 25l22 98q121 -18 242 -29l215 568q-143 49 -205.5 108t-62.5 178q0 203 130 315.5t349 112.5l59 -2l88 234h96l-92 -244q80 -10 174 -33l27 -6l-22 -92q-109 18 -220 29l-196 -519q145 -51 204.5 -110.5t59.5 -183.5q0 -217 -129 -343t-350 -126q-25 0 -78 4 l-86 -230h-90l88 236zM530 956q0 -74 41 -111.5t146 -74.5l188 498h-26q-162 0 -255.5 -79t-93.5 -233zM549 88h45q164 0 256 94t92 258q0 80 -38 118t-146 77z" />
<glyph unicode="%" d="M325.5 1036q0.5 55 16.5 123q70 279 289 279q166 0 166 -162q0 -51 -17 -119q-37 -143 -112.5 -215t-178 -72t-141.5 72q-23 39 -22.5 94zM340 12l704 1434l91 -25l-705 -1431zM430 1061q0 -100 82 -100q63 0 101 48t58.5 129t20.5 122q0 88 -84 88q-117 0 -157 -170 q-20 -76 -21 -117zM684 170q0 51 16 119q70 279 289 278q168 0 168 -161q0 -51 -16 -119q-35 -143 -112 -215t-179 -72q-166 0 -166 170zM791 188q0 -98 79 -98q117 0 166 197q15 57 15 98q0 92 -84 92q-61 0 -99.5 -46t-57.5 -124t-19 -119z" />
<glyph unicode="&#x26;" horiz-adv-x="1296" d="M160 322.5q0 185.5 99 308.5t327 209q-53 111 -54 198q0 188 101.5 297t279.5 109q274 0 275 -238q0 -160 -102.5 -270.5t-309.5 -187.5l244 -338q78 127 127 282h121q-59 -201 -176 -370l200 -256l-86 -78l-190 243q-199 -252 -479 -251q-197 0 -287 78.5t-90 264z M289 309q0 -219 262 -219q240 0 397 227l-311 437q-193 -70 -270.5 -174.5t-77.5 -270.5zM659 1046.5q0 -122.5 66 -219.5q180 72 258 159t78 214q0 137 -154 137q-121 0 -184.5 -84t-63.5 -206.5z" />
<glyph unicode="'" horiz-adv-x="344" d="M338 971l104 452h117l-110 -452h-111z" />
<glyph unicode="(" horiz-adv-x="462" d="M180 164q0 246 47 449.5t115 361.5q141 328 250 487l47 70h119q-283 -438 -402 -932q-49 -203 -49 -354q0 -283 21 -447l8 -53h-115q-41 172 -41 418z" />
<glyph unicode=")" horiz-adv-x="460" d="M0 -242q282 438 401 932q49 203 50 354q0 283 -21 447l-8 53h115q41 -172 41 -417.5t-47.5 -449.5t-114.5 -362q-141 -328 -250 -487l-47 -70h-119z" />
<glyph unicode="*" horiz-adv-x="841" d="M362 938l224 162l-221 162l55 73l221 -161l84 260l88 -29l-84 -262h270v-90h-274l84 -260l-86 -27l-86 262l-221 -162z" />
<glyph unicode="+" d="M233 457v114h398v412h117v-412h401v-114h-401v-416h-117v416h-398z" />
<glyph unicode="," horiz-adv-x="378" d="M-4 -264l192 469h136l-228 -469h-100z" />
<glyph unicode="-" horiz-adv-x="724" d="M223 492l29 114h504l-29 -114h-504z" />
<glyph unicode="." horiz-adv-x="352" d="M115 0l47 205h125l-47 -205h-125z" />
<glyph unicode="/" horiz-adv-x="831" d="M88 29l873 1413l116 -43l-874 -1413z" />
<glyph unicode="0" d="M211 362q0 244 69.5 469.5t218 383t346 157.5t300 -99t102.5 -292q0 -254 -73.5 -479.5t-223 -373.5t-342 -148t-295 98t-102.5 284zM338 376.5q0 -286.5 270 -286.5q121 0 221.5 83t161.5 214q127 279 127 577t-276 298q-121 0 -221.5 -88.5t-159.5 -225.5 q-123 -285 -123 -571.5z" />
<glyph unicode="1" d="M492 1083l483 271h110l-311 -1354h-125l275 1198l-400 -219z" />
<glyph unicode="2" d="M139 0l25 102l553 463q196 164 289.5 274.5t93.5 220t-67.5 157t-205.5 47.5q-152 0 -323 -35l-60 -12l13 100q207 57 391 57q379 0 379 -295q0 -150 -96.5 -274.5t-282.5 -272.5l-524 -421h706l-26 -111h-865z" />
<glyph unicode="3" d="M154 49l28 96q217 -55 384 -55t285 95.5t118 250.5q0 213 -252 215h-266l26 103l266 4q115 0 227.5 91t112.5 220q0 100 -59 146.5t-164 46.5q-190 0 -360 -31l-56 -10l13 96q198 55 399 55q356 0 356 -272.5t-286 -380.5q84 -35 127 -98.5t43 -176.5q0 -213 -155 -338.5 t-390 -125.5q-86 0 -185.5 17t-156.5 36z" />
<glyph unicode="4" d="M162 260l22 96l664 996h139l-665 -983h518l106 460h125l-106 -460h172l-25 -109h-172l-61 -262h-125l61 262h-653z" />
<glyph unicode="5" d="M147 47l33 103q225 -55 398.5 -55.5t301.5 129.5t128 315q0 195 -252 194q-68 0 -155 -23.5t-138 -45.5l-53 -25l-103 18l215 695h762l-24 -111h-660l-158 -489q197 94 344 94q350 0 351 -291q0 -242 -165 -406.5t-403 -164.5q-168 0 -360 49z" />
<glyph unicode="6" d="M236 440q0 252 112 490q57 123 139 221t206 159.5t270 61.5q131 0 282 -29l47 -10l-37 -104q-166 33 -288.5 33t-200.5 -33t-133 -82t-101 -119q-74 -115 -122 -278q197 92 384 92t276 -84t89 -236q0 -246 -144.5 -394t-398.5 -148q-184 0 -282 118.5t-98 341.5z M364.5 423.5q0.5 -149.5 64 -241.5t189.5 -92q199 0 305.5 113.5t106.5 290.5q0 121 -62.5 178t-203.5 57q-80 0 -174 -22.5t-148 -42.5l-55 -23q-23 -68 -22.5 -217.5z" />
<glyph unicode="7" d="M315 16l801 1149l17 74h-680l26 113h807l-47 -205l-811 -1170z" />
<glyph unicode="8" d="M135 260q0 303 354 449q-94 47 -127.5 99t-33.5 133t31.5 154.5t97 137t180.5 102.5t293 39t278.5 -71.5t100.5 -200.5t-90.5 -238.5t-249.5 -154.5q115 -43 156.5 -106.5t41.5 -132.5t-14 -123t-55 -121.5t-105.5 -120t-179.5 -89t-260 -36.5q-418 0 -418 280zM270 279 q0 -91 79 -140t215 -49t228.5 35t141.5 88q102 111 102 212t-50 145t-167 77h-213q-141 -39 -238.5 -128t-97.5 -240zM455 952q0 -68 40 -114.5t138 -81.5h213q168 41 264 153q61 72 61 164q0 189 -299 189q-215 0 -316 -91.5t-101 -218.5z" />
<glyph unicode="9" d="M160 23l43 110q156 -37 315 -37q391 0 520 498q-254 -78 -399 -78q-193 0 -279 98q-57 70 -57 189q0 51 10 112q39 199 195 328t371 129q338 0 338 -395q0 -117 -31 -264q-70 -381 -252 -557t-447 -176q-143 0 -278 32zM430 831q0 -201 248 -200q123 0 321 55l68 19 q35 136 35 245q0 307 -252 307q-150 0 -264.5 -91t-145.5 -244q-10 -49 -10 -91z" />
<glyph unicode=":" horiz-adv-x="356" d="M115 0l47 205h125l-47 -205h-125zM274 692l48 205h124l-47 -205h-125z" />
<glyph unicode=";" horiz-adv-x="423" d="M20 -264l193 469h135l-227 -469h-101zM315 692l47 205h125l-47 -205h-125z" />
<glyph unicode="&#x3c;" d="M213 459v110l860 426v-129l-735 -350l735 -356v-131z" />
<glyph unicode="=" d="M252 272v115h878v-115h-878zM252 639v115h878v-115h-878z" />
<glyph unicode="&#x3e;" d="M305 29v131l735 356l-735 350v129l860 -426v-110z" />
<glyph unicode="?" horiz-adv-x="839" d="M299 2l45 211h127l-47 -211h-125zM375 1290l6 103q180 51 322.5 51t230.5 -62.5t88 -179.5t-34 -191.5t-97.5 -136t-209.5 -178t-169 -221.5l-16 -80h-117q4 59 14 113q27 135 211 276q174 139 230.5 213t56.5 185q0 147 -221 147q-117 0 -248 -29z" />
<glyph unicode="@" horiz-adv-x="1898" d="M182 184.5q0 63.5 4 138t37 216.5q119 508 374 721t712 213q190 0 328.5 -45.5t213.5 -122.5q141 -145 142 -396q0 -129 -44 -314t-95.5 -313t-114 -192.5t-123 -87t-146.5 -22.5q-176 0 -194 120q-242 -121 -391 -120q-100 0 -158.5 41.5t-72 112.5t-13.5 104 q0 92 16 190q109 616 521 616q111 0 374 -49q-39 -150 -104.5 -447.5t-65.5 -358t26 -77t94.5 -16.5t119.5 35t108.5 155t98.5 297t44 236.5t3 110.5t-23.5 139t-87.5 152q-137 141 -479 141q-391 0 -611 -191.5t-329 -631.5q-43 -174 -43 -312q0 -524 617 -524l278 18 l-20 -110q-195 -20 -287 -21q-207 0 -354.5 57.5t-222 149.5t-103.5 208t-29 179.5zM762 276q0 -182 151 -182h5q133 0 342 113q10 117 149 698q-115 31 -240 31q-158 0 -246.5 -128t-142.5 -382q-18 -86 -18 -150z" />
<glyph unicode="A" horiz-adv-x="1136" d="M55 0l727 1423h258l47 -1423h-124l-17 391h-561l-203 -391h-127zM440 502h506l-26 809h-66z" />
<glyph unicode="B" horiz-adv-x="1183" d="M166 0l328 1423h450q168 0 251 -63.5t83 -213t-78 -256t-196 -153.5q90 -33 135 -90t45 -155q0 -227 -140.5 -359.5t-398.5 -132.5h-479zM317 111h355q180 0 280.5 101t100.5 277q0 102 -68.5 142.5t-193.5 40.5h-345zM471 782h340q150 0 244 101.5t94 251.5 q0 100 -53 139t-174 39h-330z" />
<glyph unicode="C" horiz-adv-x="1036" d="M236 387q0 291 108 559q57 141 138 251t203 178.5t265 68.5q141 0 289 -35l49 -10l-28 -103q-166 33 -310.5 33t-257 -89t-180.5 -230q-145 -297 -145 -619q0 -152 66.5 -224.5t209.5 -72.5q154 0 285 25l47 10l-6 -104q-182 -45 -344 -45q-389 0 -389 407z" />
<glyph unicode="D" horiz-adv-x="1243" d="M166 0l328 1423h460q190 0 282.5 -101t92.5 -321q0 -283 -104 -536q-115 -287 -324 -402q-113 -63 -248 -63h-487zM319 113h355q125 0 228.5 89t165.5 225t96 286.5t34 300t-62.5 223.5t-205.5 74h-336z" />
<glyph unicode="E" horiz-adv-x="1038" d="M166 0l328 1423h784l-27 -112h-657l-123 -529h545l-27 -112h-543l-129 -557h658l-27 -113h-782z" />
<glyph unicode="F" horiz-adv-x="989" d="M166 0l328 1423h766l-27 -112h-639l-137 -594h549l-27 -111h-549l-139 -606h-125z" />
<glyph unicode="G" horiz-adv-x="1173" d="M410 1094q86 158 228 254t323 96q172 0 350 -45l55 -15l-33 -98q-207 45 -369.5 45t-277.5 -92t-182 -240q-135 -299 -135 -628q0 -279 299 -279q115 0 237 27l41 10l115 487h-236l25 109h362l-161 -688q-191 -57 -396 -57q-417 0 -417 391q0 401 172 723z" />
<glyph unicode="H" horiz-adv-x="1277" d="M166 0l328 1423h127l-152 -651h696l152 651h125l-328 -1423h-127l152 659h-697l-151 -659h-125z" />
<glyph unicode="I" horiz-adv-x="456" d="M166 0l328 1423h127l-330 -1423h-125z" />
<glyph unicode="J" horiz-adv-x="532" d="M14 -145l21 112q137 2 183 50.5t87 230.5l273 1175h124l-274 -1190q-45 -188 -81 -252.5t-79 -84.5q-86 -41 -254 -41z" />
<glyph unicode="K" horiz-adv-x="1056" d="M166 0l328 1423h127l-156 -669l201 4l536 665h144l-580 -718l252 -705h-133l-230 645l-217 -4l-147 -641h-125z" />
<glyph unicode="L" horiz-adv-x="892" d="M166 0l328 1423h127l-304 -1310h586l-24 -113h-713z" />
<glyph unicode="M" horiz-adv-x="1593" d="M166 0l328 1423h223l110 -1245l705 1245h225l-330 -1423h-127l306 1311h-23l-711 -1264h-137l-119 1264h-22l-303 -1311h-125z" />
<glyph unicode="N" horiz-adv-x="1280" d="M166 0l328 1423h237l248 -1298h43l299 1298h123l-328 -1423h-229l-254 1303h-45l-301 -1303h-121z" />
<glyph unicode="O" horiz-adv-x="1292" d="M240 420q0 244 85 487.5t245.5 390t369.5 146.5q438 0 438 -424q0 -277 -88 -525.5t-248.5 -381.5t-379 -133t-320.5 98t-102 342zM369 408q0 -172 71.5 -244t229 -72t266.5 86q150 119 230.5 356.5t80.5 479.5q0 164 -75.5 240.5t-223 76.5t-252.5 -82 q-154 -119 -240.5 -365.5t-86.5 -475.5z" />
<glyph unicode="P" horiz-adv-x="1120" d="M166 0l328 1423h458q172 0 251 -79.5t79 -241.5q0 -268 -139 -438t-393 -170h-344l-115 -494h-125zM432 606h338q186 0 283.5 141.5t97.5 354.5q0 104 -50 155.5t-165 51.5h-342z" />
<glyph unicode="Q" horiz-adv-x="1292" d="M240 420q0 244 85 487.5t245.5 390t369.5 146.5q438 0 438 -424q0 -276 -88 -524q-115 -326 -352 -453l96 -297l-119 -39l-92 293q-77 -20 -151 -20q-227 0 -329.5 98t-102.5 342zM369 408q0 -172 71.5 -244t229 -72t266.5 86q150 119 230.5 356.5t80.5 479.5 q0 164 -75.5 240.5t-223 76.5t-252.5 -82q-154 -119 -240.5 -365.5t-86.5 -475.5z" />
<glyph unicode="R" horiz-adv-x="1159" d="M166 0l328 1423h442q178 0 265 -76.5t87 -250.5q0 -229 -114.5 -361.5t-262.5 -165.5l166 -569h-127l-157 553h-373l-129 -553h-125zM444 664h332q172 0 276.5 119t104.5 309q0 121 -56.5 171t-180.5 50h-326z" />
<glyph unicode="S" horiz-adv-x="1024" d="M117 27l22 102q240 -37 404 -37t260 98.5t96 272.5q0 92 -47 132t-206 91t-233.5 114.5t-74.5 194.5q0 213 137 331t367 118q160 0 317 -39l51 -14l-22 -97q-213 37 -369.5 37t-254 -84t-97.5 -243q0 -88 55.5 -127t216 -92.5t225 -117t64.5 -196.5q0 -227 -136 -359 t-368 -132q-156 0 -348 36z" />
<glyph unicode="T" horiz-adv-x="966" d="M322 1311l26 112h922l-27 -112h-397l-303 -1311h-125l301 1311h-397z" />
<glyph unicode="U" horiz-adv-x="1214" d="M258 446l225 977h125l-227 -987q-21 -81 -21 -151q0 -190 285 -191q172 0 259 79t126 249l232 1001h127l-232 -1003q-53 -225 -174 -332.5t-328 -107.5q-419 0 -419 289q0 93 22 177z" />
<glyph unicode="V" horiz-adv-x="1110" d="M377 1423h127l18 -1310h99l630 1310h127l-686 -1423h-286z" />
<glyph unicode="W" horiz-adv-x="1679" d="M336 0l53 1423h125l-59 -1308h61l574 1288h135l-31 -1288h57l557 1308h127l-612 -1423h-240l33 1206l-534 -1206h-246z" />
<glyph unicode="X" horiz-adv-x="1048" d="M31 0l583 713l-235 710h129l205 -616l489 616h141l-579 -721l240 -702h-130l-206 610l-496 -610h-141z" />
<glyph unicode="Y" horiz-adv-x="1003" d="M354 1423h127l183 -690l501 690h135l-604 -813l-143 -610h-121l143 623z" />
<glyph unicode="Z" horiz-adv-x="1015" d="M78 0l43 184l964 1069l15 58h-715l27 112h852l-45 -190l-967 -1071l-12 -49h716l-26 -113h-852z" />
<glyph unicode="[" horiz-adv-x="579" d="M70 -250l417 1780h383l-24 -109h-260l-367 -1562h260l-28 -109h-381z" />
<glyph unicode="\" horiz-adv-x="841" d="M387 1415l129 21l268 -1416l-129 -20z" />
<glyph unicode="]" horiz-adv-x="579" d="M6 -248l25 109h260l366 1562h-260l29 109h381l-418 -1780h-383z" />
<glyph unicode="^" d="M268 655l377 697h113l391 -697h-133l-314 574l-301 -574h-133z" />
<glyph unicode="_" horiz-adv-x="1232" d="M92 -285l27 123h919l-30 -123h-916z" />
<glyph unicode="`" horiz-adv-x="1060" d="M592 1407l59 96l361 -192l-58 -84z" />
<glyph unicode="a" horiz-adv-x="1009" d="M186 268q0 268 129 510q61 117 163 191.5t222 74.5q111 0 326 -36l72 -13l-156 -665q-29 -115 -49 -275l-8 -53l-119 -4q31 190 39 233q-8 -10 -21.5 -27.5t-53.5 -60.5t-81 -75.5t-98.5 -60t-108.5 -27.5q-256 0 -256 288zM313 296q0 -118 38 -163t114 -45t164 71.5 t145 143.5l57 74l125 528q-147 31 -260.5 31t-206 -112.5t-134.5 -261t-42 -266.5z" />
<glyph unicode="b" horiz-adv-x="1007" d="M145 29l336 1450h123l-141 -605q18 18 50 47t118 76t160 47q152 0 209 -79.5t57 -229.5q0 -180 -74 -375q-90 -231 -248 -327q-90 -53 -178 -53q-158 0 -348 36zM289 117q154 -29 253 -29t181 77t125 187q82 221 82 350t-34 180.5t-140 51.5q-61 0 -142.5 -48t-130.5 -95 l-51 -50z" />
<glyph unicode="c" horiz-adv-x="827" d="M195 281q0 309 129 528q66 109 171 172t221 63q2 0 5 1q114 0 221 -25l35 -8l-31 -99q-127 23 -217 23q-135 0 -229 -96q-180 -180 -181 -539q0 -106 53.5 -159.5t172.5 -53.5q72 0 192 25l39 8l-6 -98q-139 -43 -262 -43q-313 0 -313 301z" />
<glyph unicode="d" horiz-adv-x="1009" d="M186 264q0 180 58.5 355.5t178.5 299t273 123.5q102 0 238 -26l43 -8l110 471h123l-344 -1479h-118l45 201q-104 -139 -246 -197q-58 -24 -111 -24q-250 0 -250 284zM313 264q0 -176 160 -176q68 0 156 65.5t143 133.5l55 65l127 553q-137 31 -255.5 31t-210 -113.5 t-133.5 -263t-42 -295.5z" />
<glyph unicode="e" horiz-adv-x="937" d="M190 283q0 279 134 510q63 113 171.5 181t245.5 68q289 0 289 -233q0 -180 -139 -253t-436 -73h-115q-25 -102 -25 -194t56.5 -145.5t138.5 -53.5q158 0 301 37l49 14l-8 -100q-178 -61 -340 -61q-322 0 -322 303zM358 584h121q225 0 326.5 48t101.5 177t-172 129 q-268 0 -377 -354z" />
<glyph unicode="f" horiz-adv-x="624" d="M70 -461l319 1376h-123l27 109h119l24 100q49 207 126 291t216 84q66 0 144 -18l24 -6l-24 -97q-84 14 -160 14l-1 1q-75 0 -120 -61q-45 -62 -82 -212l-24 -96h290l-28 -109h-285l-213 -915l-123 -461h-106z" />
<glyph unicode="g" horiz-adv-x="950" d="M41 -219q0 174 276 321q-31 31 -31 77q0 47 28 99q26 50 55 78l26 31q-141 63 -141 230t111.5 297t298.5 130q94 0 161 -24l23 -8l303 12l-25 -109h-198q39 -59 39 -149q0 -154 -114 -283t-318 -129l-62 4q-72 -90 -72 -138t38 -63.5t180.5 -33t213 -70.5t70.5 -166 q0 -152 -141.5 -262t-374.5 -110q-160 0 -253 72.5t-93 193.5zM160 -199.5q0 -76.5 61.5 -128t197.5 -51.5t249.5 71.5t113.5 186.5q0 70 -47 99.5t-175 44t-173 32.5q-92 -47 -159.5 -112.5t-67.5 -142zM373 635q0 -176 178 -176q143 0 221 97t78 193.5t-45 142.5t-161 46 t-193.5 -97.5t-77.5 -205.5z" />
<glyph unicode="h" horiz-adv-x="1013" d="M141 0l342 1479h123l-151 -656q104 139 241 197q58 24 109 24q115 0 176 -67.5t61 -173t-41 -283.5l-120 -520h-121l121 516q37 158 37 256q0 162 -152 162q-68 0 -154 -64.5t-139 -128.5l-53 -65l-156 -676h-123z" />
<glyph unicode="i" horiz-adv-x="403" d="M139 0l238 1024h123l-238 -1024h-123zM430 1262l39 163h123l-37 -163h-125z" />
<glyph unicode="j" horiz-adv-x="403" d="M-188 -385q190 96 238 153.5t89 231.5l238 1024h123l-238 -1024q-53 -231 -115.5 -305t-293.5 -180zM434 1264l37 159h123l-37 -159h-123z" />
<glyph unicode="k" horiz-adv-x="901" d="M141 0l342 1479h123l-200 -871l145 4l399 412h146l-453 -471l209 -553h-131l-193 506l-149 -2l-115 -504h-123z" />
<glyph unicode="l" horiz-adv-x="423" d="M152 0l342 1479h120l-342 -1479h-120z" />
<glyph unicode="m" horiz-adv-x="1585" d="M139 0l238 1024h119l-41 -199q104 139 241 195q54 25 109 25q1 -1 3 -1q56 0 101 -19t66 -48q45 -57 55 -125q10 12 60.5 56t89.5 71q99 66 205 66l1 -1q106 0 168 -67.5t62 -167.5t-41 -289l-121 -520h-123l121 516q39 166 39 250q0 168 -152 168q-61 0 -138 -50 t-122 -102l-45 -49q-4 -88 -35 -213l-120 -520h-123l121 516q38 166 38 256q0 162 -151 162q-68 0 -154 -63.5t-139 -129.5l-51 -63l-158 -678h-123z" />
<glyph unicode="n" horiz-adv-x="1011" d="M139 0l238 1024h119l-43 -199q102 137 243 195q56 24 107 24q117 0 178 -67.5t61 -174t-41 -278.5l-122 -524h-121l121 516q39 166 39 256q0 162 -154 162q-68 0 -154 -63.5t-139 -129.5l-51 -63l-158 -678h-123z" />
<glyph unicode="o" horiz-adv-x="1011" d="M339.5 825q146.5 217 367.5 217q344 0 344 -337q0 -303 -144.5 -514t-378.5 -211q-335 0 -335 321q0 307 146.5 524zM315 303q0 -215 213 -215q176 0 287 181.5t111 437.5q0 104 -55.5 166.5t-163.5 62.5q-170 0 -281 -188.5t-111 -444.5z" />
<glyph unicode="p" horiz-adv-x="1007" d="M35 -461l342 1485h119l-45 -203q18 25 64 71t85 75q107 77 199 77q258 0 258 -290q0 -174 -56.5 -347.5t-177.5 -300t-276 -126.5q-117 0 -240 28l-41 8l-110 -477h-121zM289 119q137 -31 242.5 -31t181 66.5t123.5 169.5q96 217 96 426q0 184 -166 184 q-63 0 -150.5 -65.5t-142.5 -131.5l-55 -67z" />
<glyph unicode="q" horiz-adv-x="1005" d="M184 285.5q0 156.5 57.5 331t178.5 300t274 125.5q119 0 334 -34l68 -13l-334 -1441h-121l150 647q-106 -141 -242 -197q-56 -24 -107 -24q-129 0 -193.5 74.5t-64.5 231zM311 272q0 -184 166 -184q82 0 187 94q100 90 139 142l22 28l127 553q-133 31 -252.5 31 t-211 -110.5t-134.5 -260t-43 -293.5z" />
<glyph unicode="r" horiz-adv-x="636" d="M139 0l240 1024h121l-37 -154q197 135 383 174l-31 -124q-119 -29 -311 -129l-64 -33l-176 -758h-125z" />
<glyph unicode="s" horiz-adv-x="876" d="M106 23l23 98q188 -33 315 -33t211 59.5t84 176.5q0 66 -43 91t-178 57t-196.5 76t-61.5 138q0 156 111.5 256t285.5 100q135 0 283 -26l49 -10l-26 -99q-190 29 -313.5 29t-195 -65.5t-71.5 -157.5q0 -55 40 -82t178 -59.5t200.5 -75.5t62.5 -148q0 -178 -124 -273 t-316 -95q-141 0 -272 32z" />
<glyph unicode="t" horiz-adv-x="645" d="M238 160q0 82 34 221l125 534h-139l27 109h139l76 313h123l-78 -313h305l-27 -109h-303l-127 -540q-26 -114 -26 -182q0 -104 112 -105l164 12l-8 -96q-104 -25 -194 -25q-1 1 -3 1q-92 0 -146 49t-54 131z" />
<glyph unicode="u" horiz-adv-x="1011" d="M205 221.5q0 106.5 41 278.5l123 524h120l-120 -516q-39 -166 -39 -250q0 -168 153 -168q68 0 154 63.5t137 127.5l53 63l158 680h123l-238 -1024h-118l43 199q-102 -137 -242 -195q-58 -24 -109 -24q-115 0 -177 67.5t-62 174z" />
<glyph unicode="v" horiz-adv-x="925" d="M291 1024h121l28 -918h72l467 918h129l-530 -1024h-252z" />
<glyph unicode="w" horiz-adv-x="1480" d="M295 0l4 1024h123l-6 -918h35l444 898h147l21 -898h37l426 918h125l-475 -1024h-228l-16 846l-414 -846h-223z" />
<glyph unicode="x" horiz-adv-x="851" d="M45 0l426 512l-184 512h127l151 -428l346 428h136l-433 -522l185 -502h-129l-148 418l-340 -418h-137z" />
<glyph unicode="y" horiz-adv-x="925" d="M217 -459l242 459h-133l-35 1024h121l28 -918h70l469 918h129l-766 -1483h-125z" />
<glyph unicode="z" horiz-adv-x="856" d="M80 0l18 106l742 809h-551l28 109h697l-23 -106l-743 -812h555l-25 -106h-698z" />
<glyph unicode="{" horiz-adv-x="653" d="M180 590l25 102q133 35 182 87t72 163q6 27 16 90q27 152 41 193q51 162 148.5 233.5t279.5 79.5l-20 -113q-141 -8 -211 -70.5t-97 -189.5q0 -4 -18 -108.5t-27 -132.5q-29 -127 -83 -188.5t-164 -98.5q129 -51 129 -180q0 -39 -49.5 -212t-49.5 -237q0 -152 197 -151 l-31 -115q-289 8 -289 231q0 68 49.5 243t49.5 224q0 100 -150 150z" />
<glyph unicode="|" horiz-adv-x="626" d="M369 -461v1940h123v-1940h-123z" />
<glyph unicode="}" horiz-adv-x="651" d="M2 -262l21 112q141 8 210.5 71t96.5 190q0 4 18.5 108.5t26.5 132.5q29 127 83 188.5t165 98.5q-129 49 -129 180q0 37 49 211t49 238q0 152 -197 151l31 115q289 -8 289 -231q0 -68 -49.5 -243t-49.5 -224q0 -100 150 -150l-25 -102q-133 -35 -182 -87.5t-72 -162.5 q-6 -27 -16 -92q-27 -150 -41 -191q-51 -162 -148.5 -233.5t-279.5 -79.5z" />
<glyph unicode="~" d="M262 551q127 111 236 111q59 0 210.5 -68t188.5 -68q72 0 180 74l35 25l23 -103q-123 -110 -232 -110q-61 0 -213.5 67.5t-189.5 67.5q-70 0 -181 -76l-34 -25z" />
<glyph unicode="&#xa1;" horiz-adv-x="372" d="M31 -410l237 977h109l-223 -977h-123zM307 819l47 205h125l-47 -205h-125z" />
<glyph unicode="&#xa2;" d="M324 332q0 76 24 176q55 211 169 321.5t274 114.5l59 254h106l-61 -254l201 -20l-33 -111q-172 16 -246 16q-266 0 -346 -321q-23 -106 -22.5 -169t52.5 -103.5t167 -40.5l262 14l-25 -109q-129 -16 -211 -16l-59 -252h-107l60 246q-264 4 -264 254z" />
<glyph unicode="&#xa3;" d="M166 0l24 109h197l143 632h-151l27 109h151l25 115q53 225 131 325.5t252 100.5q109 0 227 -23l43 -8l-27 -96q-145 16 -220 16t-106.5 -9t-56 -35t-40 -46.5t-31.5 -69.5q-18 -55 -47 -170l-25 -100h416l-25 -109h-418l-141 -632h307l158 34v-106l-164 -37h-649z" />
<glyph unicode="&#xa4;" d="M252 164l143 141q-68 94 -67.5 210t67.5 210l-143 143l86 88l143 -145q94 66 209 66t209 -66l145 145l86 -88l-145 -145q66 -94 66 -209t-66 -207l145 -143l-86 -88l-145 145q-94 -67 -209 -67t-209 67l-143 -145zM446 516q0 -102 72 -173t174.5 -71t172 71t69.5 172 t-69.5 172t-172 71t-174.5 -70t-72 -172z" />
<glyph unicode="&#xa5;" d="M219 344l27 113h368l37 161l-8 33h-352l24 111h285l-235 592h135l237 -596l500 596h162l-502 -592h277l-25 -111h-340l-31 -37l-37 -157h363l-27 -113h-362l-82 -344h-123l80 344h-371z" />
<glyph unicode="&#xa6;" horiz-adv-x="641" d="M377 311h123v-772h-123v772zM377 711v768h123v-768h-123z" />
<glyph unicode="&#xa7;" horiz-adv-x="954" d="M78 -252l35 111q209 -29 328.5 -29t201.5 85t82 181q0 63 -44 91t-189.5 53.5t-207 82t-61.5 140.5t43 164q61 115 131 170q-41 49 -41 149q0 154 120 272.5t329 118.5q123 0 256 -22l47 -8l-31 -113q-203 29 -295 29q-143 0 -220 -71t-77 -187q0 -76 49.5 -105 t178.5 -51q260 -47 260 -219q0 -145 -156 -340q35 -47 35 -101.5t-11.5 -102.5t-43 -107.5t-78.5 -108.5t-129 -82t-160 -33q-135 0 -299 25zM350 499.5q0 -55.5 43 -88t165 -55t177 -53.5q6 6 32 45t53.5 103.5t27.5 113.5t-46 81t-155 52q-143 23 -174 50 q-45 -45 -84 -119t-39 -129.5z" />
<glyph unicode="&#xa8;" horiz-adv-x="1478" d="M510 1280l39 168h100l-39 -168h-100zM877 1280l36 168h101l-39 -168h-98z" />
<glyph unicode="&#xa9;" horiz-adv-x="1320" d="M332 888.5q0 233.5 151.5 393.5t382 160t382 -161t151.5 -394.5t-150.5 -392t-382 -158.5t-383 159.5t-151.5 393zM414 888.5q0 -196.5 129 -334.5t322.5 -138t323.5 137t130 334.5t-131 336t-323.5 138.5t-321.5 -138.5t-129 -335zM637 888q0 163 51 241.5t182 78.5 q82 0 136 -12l20 -6l-6 -94q-80 14 -154.5 14t-101.5 -51t-27 -168t29 -170t108 -53l146 14l6 -92q-80 -21 -158 -21q-129 0 -180 78t-51 241z" />
<glyph unicode="&#xaa;" horiz-adv-x="712" d="M295 874q0 27 8 58q20 84 70.5 124t148.5 46l189 12l12 45q4 21 4 37q0 59 -80 59l-229 -14l12 82q150 27 248 27t137 -43q27 -29 27 -70t-11 -82l-65 -283q12 -25 55 -36l-22 -82q-61 0 -88 11t-47 38q-131 -49 -224 -49q-145 0 -145 120zM410 899q0 -53 59 -53 q70 0 158 26l30 11l35 149l-168 -10q-90 -6 -110 -90q-4 -19 -4 -33z" />
<glyph unicode="&#xab;" horiz-adv-x="894" d="M178 479l23 64l420 280l-39 -129l-279 -188l186 -209l-34 -115zM537 479l22 64l420 280l-39 -129l-278 -188l186 -209l-35 -115z" />
<glyph unicode="&#xac;" d="M258 580v112h870v-446h-116v334h-754z" />
<glyph unicode="&#xad;" horiz-adv-x="724" d="M223 492l29 114h504l-29 -114h-504z" />
<glyph unicode="&#xae;" horiz-adv-x="1320" d="M332 888.5q0 233.5 151.5 393.5t382 160t382 -161t151.5 -394.5t-150.5 -392t-382 -158.5t-383 159.5t-151.5 393zM414 888.5q0 -196.5 129 -334.5t322.5 -138t323.5 137t130 334.5t-131 336t-323.5 138.5t-321.5 -138.5t-129 -335zM647 580v614h211q119 0 176.5 -43 t57.5 -147q0 -145 -111 -185l121 -239h-107l-110 227h-140v-227h-98zM743 891h138q61 0 86.5 24.5t25.5 85t-33.5 85t-105.5 24.5h-111v-219z" />
<glyph unicode="&#xaf;" horiz-adv-x="886" d="M475 1315l23 96h546l-24 -96h-545z" />
<glyph unicode="&#xb0;" d="M553 1157q0 127 79 207t206 80t206.5 -80t79.5 -207t-79.5 -205t-206.5 -78t-206 78t-79 205zM643 1158q0 -89 53.5 -143t142.5 -54t144 54t55 142t-55 143.5t-144 55.5t-142.5 -54.5t-53.5 -143.5z" />
<glyph unicode="&#xb1;" d="M211 86v115h915v-115h-915zM211 610v115h397v266h117v-266h401v-115h-401v-272h-117v272h-397z" />
<glyph unicode="&#xb2;" horiz-adv-x="573" d="M293 979l24 98l236 191q70 55 105.5 94t43 70t7.5 43q0 57 -91 57q-55 0 -151 -16l-31 -5l21 101q123 25 209 24q162 0 161 -118q0 -147 -196 -299l-170 -140h274l-24 -100h-418z" />
<glyph unicode="&#xb3;" horiz-adv-x="573" d="M289 981l30 96q111 -16 213.5 -16t126.5 96q6 20 7 37q0 63 -86 63h-134l23 97h133q33 0 69 30.5t46 71.5t-9.5 60.5t-68.5 19.5q-86 0 -172 -12l-29 -4l17 96q123 20 211 20q174 0 174 -114q0 -72 -49 -142q-31 -40 -84 -67q76 -25 75 -88q0 -29 -10 -70 q-47 -197 -264 -197q-76 0 -186 17z" />
<glyph unicode="&#xb4;" horiz-adv-x="1110" d="M571 1325l447 193l14 -109l-448 -178z" />
<glyph unicode="&#xb5;" d="M94 -461l346 1485h121l-108 -461h2l-37 -153q-16 -86 -16.5 -161t39.5 -117t111 -42t157 63.5t139 127.5l51 63l158 680h123l-238 -1024h-119l43 199q-102 -137 -243 -195q-55 -25 -107 -24q-117 0 -180 69l-119 -510h-123z" />
<glyph unicode="&#xb6;" horiz-adv-x="1134" d="M301 975q0 170 131 314.5t324 144.5h635l-23 -111h-160l-315 -1323h-107l316 1323h-250l-317 -1323h-107l168 692q-150 2 -222.5 82t-72.5 201z" />
<glyph unicode="&#xb7;" horiz-adv-x="356" d="M233 520l48 215h129l-48 -215h-129z" />
<glyph unicode="&#xb8;" horiz-adv-x="1619" d="M649 -412l23 90q80 -8 137 -8q86 0 106 80q2 12 3 23q0 51 -72 51h-90l45 186h76l-29 -108h10q170 0 170 -111q0 -20 -6 -45q-39 -170 -213 -170z" />
<glyph unicode="&#xb9;" horiz-adv-x="573" d="M420 1477l242 141h104l-158 -639h-110l129 518l-176 -102z" />
<glyph unicode="&#xba;" horiz-adv-x="696" d="M317 934q0 51 17 121q39 158 114.5 225.5t208.5 67.5q193 0 201 -154v-43t-14 -107q-35 -154 -113 -224t-194 -70q-219 0 -220 184zM430 954q0 -100 111 -100q78 0 122 44t62 124t18 130t-25.5 71.5t-92 21.5t-110.5 -43t-64.5 -127t-20.5 -121z" />
<glyph unicode="&#xbb;" horiz-adv-x="985" d="M150 182l38 129l279 189l-186 209l34 114l277 -297l-23 -63zM598 182l39 129l278 189l-186 209l35 114l276 -297l-22 -63z" />
<glyph unicode="&#xbc;" horiz-adv-x="1196" d="M223 29l873 1413l116 -43l-874 -1413zM373 1477l241 141h105l-158 -639h-110l129 518l-177 -102zM707 104l24 95l266 440h121l-266 -432h172l53 178h103l-45 -178h61l-25 -103h-61l-27 -104h-108l24 104h-292z" />
<glyph unicode="&#xbd;" horiz-adv-x="1247" d="M223 29l873 1413l116 -43l-874 -1413zM373 1477l241 141h105l-158 -639h-110l129 518l-177 -102zM762 0l24 98l236 191q70 55 105.5 94t43 70t7.5 43q0 57 -91 57q-55 0 -149 -16l-33 -5l21 101q123 25 209 24q162 0 161 -118q0 -147 -196 -299l-170 -140h274l-24 -100 h-418z" />
<glyph unicode="&#xbe;" horiz-adv-x="1234" d="M266 29l873 1413l116 -43l-874 -1413zM289 981l30 96q111 -16 213.5 -16t126.5 96q6 20 7 37q0 63 -86 63h-134l23 97h133q33 0 69 30.5t46 71.5t-9.5 60.5t-68.5 19.5q-86 0 -172 -12l-29 -4l17 96q123 20 211 20q174 0 174 -114q0 -72 -49 -142q-31 -40 -84 -67 q76 -25 75 -88q0 -29 -10 -70q-47 -197 -264 -197q-76 0 -186 17zM750 104l24 95l266 440h121l-266 -432h172l53 178h103l-45 -178h61l-25 -103h-61l-27 -104h-108l24 104h-292z" />
<glyph unicode="&#xbf;" horiz-adv-x="821" d="M47 -176q0 117 34 191.5t97.5 136t210.5 178.5q145 117 168 221l16 80h117q-4 -59 -14 -113q-27 -135 -211 -276q-174 -139 -230.5 -213t-56.5 -185q0 -147 221 -147q96 0 248 29l47 10l-6 -103q-180 -51 -322.5 -51t-230.5 62.5t-88 179.5zM598 813l47 211h125l-45 -211 h-127z" />
<glyph unicode="&#xc0;" horiz-adv-x="1136" d="M55 0l727 1423h258l47 -1423h-124l-17 391h-561l-203 -391h-127zM440 502h506l-26 809h-66zM674 1792l59 102l359 -194l-54 -88z" />
<glyph unicode="&#xc1;" horiz-adv-x="1136" d="M55 0l727 1423h258l47 -1423h-124l-17 391h-561l-203 -391h-127zM440 502h506l-26 809h-66zM795 1710l448 195l19 -107l-451 -180z" />
<glyph unicode="&#xc2;" horiz-adv-x="1136" d="M55 0l727 1423h258l47 -1423h-124l-17 391h-561l-203 -391h-127zM440 502h506l-26 809h-66zM637 1632l330 275h61l199 -275h-115l-125 176l-215 -176h-135z" />
<glyph unicode="&#xc3;" horiz-adv-x="1136" d="M55 0l727 1423h258l47 -1423h-124l-17 391h-561l-203 -391h-127zM440 502h506l-26 809h-66zM623 1763q137 121 199.5 121t165 -59.5t122.5 -59.5q41 0 139 74l33 25l6 -86q-128 -121 -196 -121q-47 0 -151.5 60.5t-129.5 60.5q-39 0 -147 -78l-37 -27z" />
<glyph unicode="&#xc4;" horiz-adv-x="1136" d="M55 0l727 1423h258l47 -1423h-124l-17 391h-561l-203 -391h-127zM440 502h506l-26 809h-66zM715 1679l37 170h102l-41 -170h-98zM1092 1679l41 170h100l-41 -170h-100z" />
<glyph unicode="&#xc5;" horiz-adv-x="1136" d="M55 0l703 1374q-33 35 -33 76t10 76q27 96 91.5 146t155.5 50t134 -49q27 -31 27 -71q0 -147 -103 -224l47 -1378h-124l-17 391h-561l-203 -391h-127zM440 502h506l-26 809h-66zM815 1491q0 -53 55 -68h78q80 18 103 103q2 14 2 36.5t-20.5 47t-71.5 24.5 q-117 0 -142 -108q-4 -19 -4 -35z" />
<glyph unicode="&#xc6;" horiz-adv-x="1609" d="M55 0l727 1427h1071l-24 -116l-668 4l-129 -533h553l-24 -114h-553l-131 -551h665l-24 -117h-787l90 391h-442l-203 -391h-121zM434 506h414l194 805h-198z" />
<glyph unicode="&#xc7;" horiz-adv-x="1036" d="M236 387q0 291 108 559q57 141 138 251t203 178.5t265 68.5q141 0 289 -35l49 -10l-28 -103q-166 33 -310.5 33t-257 -89t-180.5 -230q-145 -297 -145 -619q0 -152 66.5 -224.5t209.5 -72.5q154 0 285 25l47 10l-6 -104q-182 -45 -344 -45h-7l-20 -78h10q170 0 170 -111 q0 -20 -6 -45q-39 -170 -213 -170l-160 12l23 90q80 -8 137 -8q86 0 107 80q2 12 2 23q0 51 -72 51h-90l39 162q-309 39 -309 401z" />
<glyph unicode="&#xc8;" horiz-adv-x="1038" d="M166 0l328 1423h784l-27 -112h-657l-123 -529h545l-27 -112h-543l-129 -557h658l-27 -113h-782zM713 1792l59 102l358 -194l-53 -88z" />
<glyph unicode="&#xc9;" horiz-adv-x="1038" d="M166 0l328 1423h784l-27 -112h-657l-123 -529h545l-27 -112h-543l-129 -557h658l-27 -113h-782zM768 1710l449 195l18 -107l-451 -180z" />
<glyph unicode="&#xca;" horiz-adv-x="1038" d="M166 0l328 1423h784l-27 -112h-657l-123 -529h545l-27 -112h-543l-129 -557h658l-27 -113h-782zM743 1626l330 275h62l198 -275h-114l-125 176l-215 -176h-136z" />
<glyph unicode="&#xcb;" horiz-adv-x="1038" d="M166 0l328 1423h784l-27 -112h-657l-123 -529h545l-27 -112h-543l-129 -557h658l-27 -113h-782zM702 1679l37 170h103l-41 -170h-99zM1079 1679l41 170h101l-41 -170h-101z" />
<glyph unicode="&#xcc;" horiz-adv-x="456" d="M166 0l328 1423h127l-330 -1423h-125zM309 1792l60 102l358 -194l-53 -88z" />
<glyph unicode="&#xcd;" horiz-adv-x="456" d="M166 0l328 1423h127l-330 -1423h-125zM477 1710l449 195l18 -107l-450 -180z" />
<glyph unicode="&#xce;" horiz-adv-x="456" d="M166 0l328 1423h127l-330 -1423h-125zM299 1626l330 275h61l199 -275h-115l-125 176l-215 -176h-135z" />
<glyph unicode="&#xcf;" horiz-adv-x="456" d="M166 0l328 1423h127l-330 -1423h-125zM362 1686l37 169h103l-41 -169h-99zM739 1686l41 169h101l-41 -169h-101z" />
<glyph unicode="&#xd0;" horiz-adv-x="1251" d="M172 0l150 651h-144l27 127h145l150 645h461q190 0 282 -101t92 -321q0 -283 -102 -536q-117 -287 -324 -402q-115 -63 -250 -63h-487zM326 113h354q125 0 228.5 89t166 225t96 286.5t33.5 300t-62.5 223.5t-205.5 74h-336l-123 -533h307l-30 -127h-305z" />
<glyph unicode="&#xd1;" horiz-adv-x="1280" d="M166 0l328 1423h237l248 -1298h43l299 1298h123l-328 -1423h-229l-254 1303h-45l-301 -1303h-121zM700 1759q137 121 200 121t165 -59.5t123 -59.5q41 0 139 74l33 25l6 -86q-129 -121 -197 -121q-47 0 -151.5 60.5t-128.5 60.5q-39 0 -148 -78l-36 -27z" />
<glyph unicode="&#xd2;" horiz-adv-x="1292" d="M240 420q0 244 85 487.5t245.5 390t369.5 146.5q438 0 438 -424q0 -277 -88 -525.5t-248.5 -381.5t-379 -133t-320.5 98t-102 342zM369 408q0 -172 71.5 -244t229 -72t266.5 86q150 119 230.5 356.5t80.5 479.5q0 164 -75.5 240.5t-223 76.5t-252.5 -82 q-154 -119 -240.5 -365.5t-86.5 -475.5zM795 1792l59 102l358 -194l-53 -88z" />
<glyph unicode="&#xd3;" horiz-adv-x="1292" d="M240 420q0 244 85 487.5t245.5 390t369.5 146.5q438 0 438 -424q0 -277 -88 -525.5t-248.5 -381.5t-379 -133t-320.5 98t-102 342zM369 408q0 -172 71.5 -244t229 -72t266.5 86q150 119 230.5 356.5t80.5 479.5q0 164 -75.5 240.5t-223 76.5t-252.5 -82 q-154 -119 -240.5 -365.5t-86.5 -475.5zM870 1710l449 195l18 -107l-450 -180z" />
<glyph unicode="&#xd4;" horiz-adv-x="1292" d="M240 420q0 244 85 487.5t245.5 390t369.5 146.5q438 0 438 -424q0 -277 -88 -525.5t-248.5 -381.5t-379 -133t-320.5 98t-102 342zM369 408q0 -172 71.5 -244t229 -72t266.5 86q150 119 230.5 356.5t80.5 479.5q0 164 -75.5 240.5t-223 76.5t-252.5 -82 q-154 -119 -240.5 -365.5t-86.5 -475.5zM729 1632l330 275h61l199 -275h-115l-125 176l-215 -176h-135z" />
<glyph unicode="&#xd5;" horiz-adv-x="1292" d="M240 420q0 244 85 487.5t245.5 390t369.5 146.5q438 0 438 -424q0 -277 -88 -525.5t-248.5 -381.5t-379 -133t-320.5 98t-102 342zM369 408q0 -172 71.5 -244t229 -72t266.5 86q150 119 230.5 356.5t80.5 479.5q0 164 -75.5 240.5t-223 76.5t-252.5 -82 q-154 -119 -240.5 -365.5t-86.5 -475.5zM729 1759q137 121 199.5 121t165 -59.5t123.5 -59.5q41 0 139 74l33 25l6 -86q-129 -121 -197 -121q-47 0 -151.5 60.5t-128.5 60.5q-39 0 -148 -78l-37 -27z" />
<glyph unicode="&#xd6;" horiz-adv-x="1292" d="M240 420q0 244 85 487.5t245.5 390t369.5 146.5q438 0 438 -424q0 -277 -88 -525.5t-248.5 -381.5t-379 -133t-320.5 98t-102 342zM369 408q0 -172 71.5 -244t229 -72t266.5 86q150 119 230.5 356.5t80.5 479.5q0 164 -75.5 240.5t-223 76.5t-252.5 -82 q-154 -119 -240.5 -365.5t-86.5 -475.5zM784 1679l39 168h115l-39 -168h-115zM1165 1679l37 168h113l-39 -168h-111z" />
<glyph unicode="&#xd7;" d="M270 174l342 340l-342 338l80 82l340 -344l340 344l80 -80l-342 -340l342 -340l-80 -82l-340 344l-340 -342z" />
<glyph unicode="&#xd8;" horiz-adv-x="1292" d="M147 -186l185 272q-92 98 -92 338t85 483.5t245.5 390t369.5 146.5q172 0 274 -64l168 246l84 -37l-182 -266q94 -102 94 -303q0 -276 -88 -525t-248.5 -382t-351 -133t-287.5 51l-180 -262zM369 408q0 -137 41 -207l735 1077q-74 53 -209 53t-240 -82 q-154 -119 -240.5 -365.5t-86.5 -475.5zM475 135q70 -43 211 -43t250 86q150 119 230.5 356.5t80.5 479.5q0 119 -41 194z" />
<glyph unicode="&#xd9;" horiz-adv-x="1214" d="M236 270q0 92 22 176l225 977h125l-227 -987q-21 -81 -21 -151q0 -190 285 -191q172 0 259 79t126 249l232 1001h127l-232 -1003q-53 -225 -174 -332.5t-328 -107.5q-420 0 -419 290zM745 1792l60 102l358 -194l-53 -88z" />
<glyph unicode="&#xda;" horiz-adv-x="1214" d="M236 270q0 92 22 176l225 977h125l-227 -987q-21 -81 -21 -151q0 -190 285 -191q172 0 259 79t126 249l232 1001h127l-232 -1003q-53 -225 -174 -332.5t-328 -107.5q-420 0 -419 290zM784 1710l449 195l18 -107l-450 -180z" />
<glyph unicode="&#xdb;" horiz-adv-x="1214" d="M236 270q0 92 22 176l225 977h125l-227 -987q-21 -81 -21 -151q0 -190 285 -191q172 0 259 79t126 249l232 1001h127l-232 -1003q-53 -225 -174 -332.5t-328 -107.5q-420 0 -419 290zM674 1632l330 275h61l199 -275h-115l-125 176l-215 -176h-135z" />
<glyph unicode="&#xdc;" horiz-adv-x="1214" d="M236 270q0 92 22 176l225 977h125l-227 -987q-21 -81 -21 -151q0 -190 285 -191q172 0 259 79t126 249l232 1001h127l-232 -1003q-53 -225 -174 -332.5t-328 -107.5q-420 0 -419 290zM725 1679l39 168h115l-39 -168h-115zM1106 1679l37 168h114l-40 -168h-111z" />
<glyph unicode="&#xdd;" horiz-adv-x="1003" d="M354 1423h127l183 -690l501 690h135l-604 -813l-143 -610h-121l143 623zM688 1710l449 195l18 -107l-450 -180z" />
<glyph unicode="&#xde;" horiz-adv-x="1128" d="M162 0l336 1427h123l-56 -235h348q209 0 281 -125q45 -78 45 -164t-16 -162q-49 -221 -181.5 -353t-339.5 -132h-358l-59 -256h-123zM373 375h356q274 0 371 366q18 72 18 127q0 205 -233 205l-346 2z" />
<glyph unicode="&#xdf;" horiz-adv-x="1089" d="M139 0l256 1087q53 227 154 319.5t287 92.5q317 0 317 -233q0 -219 -199 -316q-96 -47 -131 -75.5t-35 -67.5t24 -65.5t121 -87t134 -106.5t37 -145q0 -195 -120 -309t-335 -114q-94 0 -205 28l-36 8l22 99q133 -27 217 -27q156 0 244 83t88 222q0 63 -30.5 100 t-125 94.5t-127 99.5t-32.5 110.5t43 117t145 100.5t139 103t37 133q0 141 -201 142q-139 0 -209.5 -73t-109.5 -247l-252 -1073h-117z" />
<glyph unicode="&#xe0;" horiz-adv-x="1009" d="M186 268q0 268 129 510q61 117 163 191.5t222 74.5q111 0 326 -36l72 -13l-156 -665q-29 -115 -49 -275l-8 -53l-119 -4q31 190 39 233q-8 -10 -21.5 -27.5t-53.5 -60.5t-81 -75.5t-98.5 -60t-108.5 -27.5q-256 0 -256 288zM313 296q0 -118 38 -163t114 -45t164 71.5 t145 143.5l57 74l125 528q-147 31 -260.5 31t-206 -112.5t-134.5 -261t-42 -266.5zM627 1407l59 96l361 -192l-58 -84z" />
<glyph unicode="&#xe1;" horiz-adv-x="1009" d="M186 268q0 268 129 510q61 117 163 191.5t222 74.5q111 0 326 -36l72 -13l-156 -665q-29 -115 -49 -275l-8 -53l-119 -4q31 190 39 233q-8 -10 -21.5 -27.5t-53.5 -60.5t-81 -75.5t-98.5 -60t-108.5 -27.5q-256 0 -256 288zM313 296q0 -118 38 -163t114 -45t164 71.5 t145 143.5l57 74l125 528q-147 31 -260.5 31t-206 -112.5t-134.5 -261t-42 -266.5zM686 1325l447 193l14 -109l-449 -178z" />
<glyph unicode="&#xe2;" horiz-adv-x="1009" d="M186 268q0 268 129 510q61 117 163 191.5t222 74.5q111 0 326 -36l72 -13l-156 -665q-29 -115 -49 -275l-8 -53l-119 -4q31 190 39 233q-8 -10 -21.5 -27.5t-53.5 -60.5t-81 -75.5t-98.5 -60t-108.5 -27.5q-256 0 -256 288zM313 296q0 -118 38 -163t114 -45t164 71.5 t145 143.5l57 74l125 528q-147 31 -260.5 31t-206 -112.5t-134.5 -261t-42 -266.5zM508 1208l309 297h86l178 -297h-127l-110 189l-199 -189h-137z" />
<glyph unicode="&#xe3;" horiz-adv-x="1009" d="M186 268q0 268 129 510q61 117 163 191.5t222 74.5q111 0 326 -36l72 -13l-156 -665q-29 -115 -49 -275l-8 -53l-119 -4q31 190 39 233q-8 -10 -21.5 -27.5t-53.5 -60.5t-81 -75.5t-98.5 -60t-108.5 -27.5q-256 0 -256 288zM313 296q0 -118 38 -163t114 -45t164 71.5 t145 143.5l57 74l125 528q-147 31 -260.5 31t-206 -112.5t-134.5 -261t-42 -266.5zM563 1376q123 102 193 103q45 0 139 -50.5t113 -50.5q37 0 125 64l28 20l8 -94q-110 -98 -180 -98q-39 0 -137 50t-121 50q-41 0 -133 -67l-31 -23z" />
<glyph unicode="&#xe4;" horiz-adv-x="1009" d="M186 268q0 268 129 510q61 117 163 191.5t222 74.5q111 0 326 -36l72 -13l-156 -665q-29 -115 -49 -275l-8 -53l-119 -4q31 190 39 233q-8 -10 -21.5 -27.5t-53.5 -60.5t-81 -75.5t-98.5 -60t-108.5 -27.5q-256 0 -256 288zM313 296q0 -118 38 -163t114 -45t164 71.5 t145 143.5l57 74l125 528q-147 31 -260.5 31t-206 -112.5t-134.5 -261t-42 -266.5zM557 1280l39 168h115l-41 -168h-113zM938 1280l35 168h114l-38 -168h-111z" />
<glyph unicode="&#xe5;" horiz-adv-x="1009" d="M186 268q0 268 129 510q61 117 163 191.5t222 74.5q111 0 326 -36l72 -13l-156 -665q-29 -115 -49 -275l-8 -53l-119 -4q31 190 39 233q-8 -10 -21.5 -27.5t-53.5 -60.5t-81 -75.5t-98.5 -60t-108.5 -27.5q-256 0 -256 288zM313 296q0 -118 38 -163t114 -45t164 71.5 t145 143.5l57 74l125 528q-147 31 -260.5 31t-206 -112.5t-134.5 -261t-42 -266.5zM684 1292q0 127 86 205q63 57 143 57t113 -39.5t33 -101.5q0 -113 -70.5 -180.5t-160 -67.5t-121.5 54q-23 35 -23 73zM766 1325q0 -18 18.5 -47t63.5 -29t89 38t44 106q0 18 -18.5 45.5 t-62.5 27.5t-89 -35.5t-45 -105.5z" />
<glyph unicode="&#xe6;" horiz-adv-x="1550" d="M131 186q0 219 129 314q92 66 245.5 89t319.5 34q33 98 33 163q0 135 -137 136q-100 0 -307 -17l-60 -6l19 117q229 27 350 26q231 0 252 -165q127 166 354 165q285 0 291 -276q0 -109 -29 -211l-26 -98l-643 4q-25 -104 -25 -170q0 -195 172 -195q117 0 320 15l59 4 l-23 -107q-213 -29 -366 -28q-193 0 -256 114q-100 -43 -237.5 -78.5t-227.5 -35.5q-127 0 -174 90q-33 57 -33 116zM260 225q0 -131 115 -131q143 0 399 90q-8 41 -8 108.5t39 223.5q-225 -23 -311 -35q-184 -29 -224 -188q-10 -35 -10 -68zM944 565l529 -4q26 108 26 176 q0 193 -196 193q-137 0 -225.5 -87t-133.5 -278z" />
<glyph unicode="&#xe7;" horiz-adv-x="829" d="M195 281q0 309 129 528q66 109 171 172t238 63q100 0 209 -24l35 -8l-31 -99q-127 23 -217 23q-135 0 -229 -96q-180 -180 -181 -539q0 -106 53.5 -159.5t172.5 -53.5q72 0 192 25l39 8l-6 -98q-139 -43 -262 -43h-6l-21 -78h11q170 0 170 -111q0 -20 -7 -45 q-39 -170 -213 -170l-159 12l22 90q80 -8 137 -8q86 0 107 80q2 12 2 23q0 51 -72 51h-90l39 162q-233 37 -233 295z" />
<glyph unicode="&#xe8;" horiz-adv-x="937" d="M190 283q0 279 134 510q63 113 171.5 181t245.5 68q289 0 289 -233q0 -180 -139 -253t-436 -73h-115q-25 -102 -25 -194t56.5 -145.5t138.5 -53.5q158 0 301 37l49 14l-8 -100q-178 -61 -340 -61q-322 0 -322 303zM358 584h121q225 0 326.5 48t101.5 177t-172 129 q-268 0 -377 -354zM467 1407l59 96l361 -192l-58 -84z" />
<glyph unicode="&#xe9;" horiz-adv-x="937" d="M190 283q0 279 134 510q63 113 171.5 181t245.5 68q289 0 289 -233q0 -180 -139 -253t-436 -73h-115q-25 -102 -25 -194t56.5 -145.5t138.5 -53.5q158 0 301 37l49 14l-8 -100q-178 -61 -340 -61q-322 0 -322 303zM358 584h121q225 0 326.5 48t101.5 177t-172 129 q-268 0 -377 -354zM612 1325l447 193l14 -109l-448 -178z" />
<glyph unicode="&#xea;" horiz-adv-x="937" d="M190 283q0 279 134 510q63 113 171.5 181t245.5 68q289 0 289 -233q0 -180 -139 -253t-436 -73h-115q-25 -102 -25 -194t56.5 -145.5t138.5 -53.5q158 0 301 37l49 14l-8 -100q-178 -61 -340 -61q-322 0 -322 303zM358 584h121q225 0 326.5 48t101.5 177t-172 129 q-268 0 -377 -354zM467 1208l311 297h84l178 -297h-125l-110 189l-199 -189h-139z" />
<glyph unicode="&#xeb;" horiz-adv-x="937" d="M190 283q0 279 134 510q63 113 171.5 181t245.5 68q289 0 289 -233q0 -180 -139 -253t-436 -73h-115q-25 -102 -25 -194t56.5 -145.5t138.5 -53.5q158 0 301 37l49 14l-8 -100q-178 -61 -340 -61q-322 0 -322 303zM358 584h121q225 0 326.5 48t101.5 177t-172 129 q-268 0 -377 -354zM539 1280l39 168h114l-39 -168h-114zM920 1280l36 168h115l-41 -168h-110z" />
<glyph unicode="&#xec;" horiz-adv-x="403" d="M139 0l238 1024h123l-238 -1024h-123zM160 1407l59 96l361 -192l-58 -84z" />
<glyph unicode="&#xed;" horiz-adv-x="403" d="M139 0l238 1024h123l-238 -1024h-123zM389 1325l447 193l14 -109l-449 -178z" />
<glyph unicode="&#xee;" horiz-adv-x="403" d="M139 0l238 1024h123l-238 -1024h-123zM180 1208l309 297h86l177 -297h-125l-111 189l-199 -189h-137z" />
<glyph unicode="&#xef;" horiz-adv-x="403" d="M139 0l238 1024h123l-238 -1024h-123zM219 1280l39 168h115l-41 -168h-113zM600 1280l35 168h115l-39 -168h-111z" />
<glyph unicode="&#xf0;" horiz-adv-x="1052" d="M166 279q0 20 2 40q14 250 164.5 405t359.5 155q66 0 144.5 -19.5t126.5 -40.5l47 -20q8 47 8 90q0 219 -201 354l-244 -151l-49 79l201 125q-74 39 -203 80l51 111q162 -39 281 -109l221 140l47 -82l-182 -115q203 -158 203 -410q0 -84 -23 -178q-94 -395 -242.5 -573 t-371.5 -178q-184 0 -262 90t-78 207zM299 303q0 -86 54.5 -142.5t181.5 -56.5q303 0 448 574q-33 25 -140.5 52.5t-168.5 27.5q-154 0 -261.5 -124t-111.5 -306q-2 -12 -2 -25z" />
<glyph unicode="&#xf1;" horiz-adv-x="1011" d="M139 0l238 1024h119l-43 -199l47 56q45 53 133 108t187.5 55t160.5 -67.5t61 -174t-41 -278.5l-122 -524h-121l121 516q39 166 39 256q0 162 -154 162q-82 0 -186 -90q-41 -33 -82 -77t-54.5 -61.5t-21.5 -27.5l-158 -678h-123zM522 1376q123 102 193 103q45 0 139 -50.5 t113 -50.5q37 0 125 64l28 20l8 -94q-110 -98 -180 -98q-39 0 -137 50t-121 50q-41 0 -133 -67l-31 -23z" />
<glyph unicode="&#xf2;" horiz-adv-x="1011" d="M193 303q0 305 146.5 522t367.5 217q344 0 344 -337q0 -303 -144.5 -514t-378.5 -211q-336 0 -335 323zM315 303q0 -215 213 -215q176 0 287 181.5t111 437.5q0 104 -55.5 166.5t-163.5 62.5q-170 0 -281 -188.5t-111 -444.5zM522 1407l60 96l360 -192l-57 -84z" />
<glyph unicode="&#xf3;" horiz-adv-x="1011" d="M193 303q0 305 146.5 522t367.5 217q344 0 344 -337q0 -303 -144.5 -514t-378.5 -211q-336 0 -335 323zM315 303q0 -215 213 -215q176 0 287 181.5t111 437.5q0 104 -55.5 166.5t-163.5 62.5q-170 0 -281 -188.5t-111 -444.5zM614 1325l447 193l14 -109l-448 -178z" />
<glyph unicode="&#xf4;" horiz-adv-x="1011" d="M193 303q0 305 146.5 522t367.5 217q344 0 344 -337q0 -303 -144.5 -514t-378.5 -211q-336 0 -335 323zM315 303q0 -215 213 -215q176 0 287 181.5t111 437.5q0 104 -55.5 166.5t-163.5 62.5q-170 0 -281 -188.5t-111 -444.5zM500 1208l311 297h84l178 -297h-127 l-110 189l-199 -189h-137z" />
<glyph unicode="&#xf5;" horiz-adv-x="1011" d="M193 303q0 305 146.5 522t367.5 217q344 0 344 -337q0 -303 -144.5 -514t-378.5 -211q-336 0 -335 323zM315 303q0 -215 213 -215q176 0 287 181.5t111 437.5q0 104 -55.5 166.5t-163.5 62.5q-170 0 -281 -188.5t-111 -444.5zM496 1376q123 102 192 103q45 0 139.5 -50.5 t114.5 -50.5q35 0 123 64l29 20l8 -94q-110 -98 -180 -98q-41 0 -137.5 50t-120.5 50q-41 0 -134 -67l-30 -23z" />
<glyph unicode="&#xf6;" horiz-adv-x="1011" d="M193 303q0 305 146.5 522t367.5 217q344 0 344 -337q0 -303 -144.5 -514t-378.5 -211q-336 0 -335 323zM315 303q0 -215 213 -215q176 0 287 181.5t111 437.5q0 104 -55.5 166.5t-163.5 62.5q-170 0 -281 -188.5t-111 -444.5zM555 1280l39 168h100l-39 -168h-100z M922 1280l36 168h101l-39 -168h-98z" />
<glyph unicode="&#xf7;" d="M317 539v120h750v-120h-750zM545 686v184h295v-184h-295zM629 68v190h125v-190h-125z" />
<glyph unicode="&#xf8;" horiz-adv-x="1009" d="M125 -197l160 252q-90 80 -90 252q0 305 146.5 522.5t367.5 217.5q98 0 176 -33l137 223l78 -33l-148 -231q100 -88 101 -264q0 -303 -144.5 -514t-378.5 -211q-104 0 -178 30l-149 -243zM317 307q0 -90 37 -141l230 362l239 387q-46 25 -114 25q-170 0 -281 -188.5 t-111 -444.5zM416 115q42 -23 114 -23q176 0 287 181.5t111 437.5q0 94 -43 151l-236 -370z" />
<glyph unicode="&#xf9;" horiz-adv-x="1011" d="M205 221.5q0 106.5 41 278.5l123 524h120l-120 -516q-39 -166 -39 -250q0 -168 153 -168q68 0 154 63.5t137 127.5l53 63l158 680h123l-238 -1024h-118l43 199q-102 -137 -242 -195q-58 -24 -109 -24q-115 0 -177 67.5t-62 174zM526 1407l60 96l360 -192l-57 -84z" />
<glyph unicode="&#xfa;" horiz-adv-x="1011" d="M205 221.5q0 106.5 41 278.5l123 524h120l-120 -516q-39 -166 -39 -250q0 -168 153 -168q68 0 154 63.5t137 127.5l53 63l158 680h123l-238 -1024h-118l43 199q-102 -137 -242 -195q-58 -24 -109 -24q-115 0 -177 67.5t-62 174zM641 1325l446 193l15 -109l-449 -178z" />
<glyph unicode="&#xfb;" horiz-adv-x="1011" d="M205 221.5q0 106.5 41 278.5l123 524h120l-120 -516q-39 -166 -39 -250q0 -168 153 -168q68 0 154 63.5t137 127.5l53 63l158 680h123l-238 -1024h-118l43 199q-102 -137 -242 -195q-58 -24 -109 -24q-115 0 -177 67.5t-62 174zM461 1208l311 297h84l178 -297h-125 l-110 189l-199 -189h-139z" />
<glyph unicode="&#xfc;" horiz-adv-x="1011" d="M205 221.5q0 106.5 41 278.5l123 524h120l-120 -516q-39 -166 -39 -250q0 -168 153 -168q68 0 154 63.5t137 127.5l53 63l158 680h123l-238 -1024h-118l43 199q-102 -137 -242 -195q-58 -24 -109 -24q-115 0 -177 67.5t-62 174zM524 1280l39 168h115l-39 -168h-115z M905 1280l37 168h115l-41 -168h-111z" />
<glyph unicode="&#xfd;" horiz-adv-x="925" d="M217 -459l242 459h-133l-35 1024h121l28 -918h70l469 918h129l-766 -1483h-125zM588 1325l446 193l15 -109l-449 -178z" />
<glyph unicode="&#xfe;" horiz-adv-x="983" d="M31 -457l456 1932h117l-135 -562q178 129 313 129q100 0 162 -50t77 -120.5t15 -111.5q0 -123 -28 -230q-78 -287 -203 -418.5t-338 -131.5q-102 0 -157.5 9t-55.5 11l-109 -457h-114zM281 117l206 -21q158 0 248.5 103.5t153.5 330.5q23 84 22.5 146.5t-8.5 115 t-48 93.5t-105.5 41t-143.5 -37t-123 -70l-45 -33z" />
<glyph unicode="&#xff;" horiz-adv-x="925" d="M217 -459l242 459h-133l-35 1024h121l28 -918h70l469 918h129l-766 -1483h-125zM481 1280l39 168h115l-39 -168h-115zM862 1280l37 168h115l-41 -168h-111z" />
<glyph unicode="&#x152;" horiz-adv-x="1771" d="M225 350q0 137 49 357q90 375 249 558t433 183q117 0 281 -21h778l-26 -124h-662l-125 -515h545l-27 -122l-542 4l-129 -545h659l-31 -127h-774q-211 -18 -293 -18q-199 0 -291 90q-94 94 -94 280zM352 383q0 -276 275 -277q139 0 299 17l282 1186q-115 14 -270 14 q-223 0 -343 -147.5t-194 -466.5q-49 -193 -49 -326z" />
<glyph unicode="&#x153;" horiz-adv-x="1656" d="M186 260q0 117 37 268q63 270 182 392t349 122q258 0 290 -211q125 211 388 211q289 0 294 -272v-59t-26 -154l-29 -100l-651 4q-27 -115 -27 -194t49.5 -125t131.5 -46q115 0 317 15l59 4l-18 -107q-213 -29 -371 -28q-236 0 -274 190q-61 -98 -152.5 -144t-242 -46 t-226.5 59q-80 63 -80 221zM307 267q0 -89 52.5 -130t148.5 -41t153.5 22.5t94.5 55.5t67 94q45 92 80 234.5t35 200t-6 85.5q-29 139 -196 139.5t-253 -92t-131 -286t-45 -282.5zM1044 565l535 -4q27 109 27 189q-2 176 -199 176q-276 0 -363 -361z" />
<glyph unicode="&#x178;" horiz-adv-x="1003" d="M354 1423h127l183 -690l501 690h135l-604 -813l-143 -610h-121l143 623zM623 1677l36 170h103l-41 -170h-98zM999 1677l41 170h101l-41 -170h-101z" />
<glyph unicode="&#x2c6;" horiz-adv-x="1619" d="M803 1208l309 297h64l178 -297h-115l-111 189l-198 -189h-127z" />
<glyph unicode="&#x2dc;" horiz-adv-x="864" d="M461 1376q123 102 192 103q45 0 139.5 -50.5t112.5 -50.5q37 0 125 64l29 20l8 -94q-110 -98 -180 -98q-41 0 -138.5 50t-119.5 50q-41 0 -133 -67l-31 -23z" />
<glyph unicode="&#x2000;" horiz-adv-x="953" />
<glyph unicode="&#x2001;" horiz-adv-x="1907" />
<glyph unicode="&#x2002;" horiz-adv-x="953" />
<glyph unicode="&#x2003;" horiz-adv-x="1907" />
<glyph unicode="&#x2004;" horiz-adv-x="635" />
<glyph unicode="&#x2005;" horiz-adv-x="476" />
<glyph unicode="&#x2006;" horiz-adv-x="317" />
<glyph unicode="&#x2007;" horiz-adv-x="317" />
<glyph unicode="&#x2008;" horiz-adv-x="238" />
<glyph unicode="&#x2009;" horiz-adv-x="381" />
<glyph unicode="&#x200a;" horiz-adv-x="105" />
<glyph unicode="&#x2010;" horiz-adv-x="724" d="M223 492l29 114h504l-29 -114h-504z" />
<glyph unicode="&#x2011;" horiz-adv-x="724" d="M223 492l29 114h504l-29 -114h-504z" />
<glyph unicode="&#x2012;" horiz-adv-x="724" d="M223 492l29 114h504l-29 -114h-504z" />
<glyph unicode="&#x2013;" horiz-adv-x="1251" d="M242 494v110h1024v-110h-1024z" />
<glyph unicode="&#x2014;" horiz-adv-x="2275" d="M242 494v110h2048v-110h-2048z" />
<glyph unicode="&#x2018;" horiz-adv-x="372" d="M311 981l213 440h94l-180 -440h-127z" />
<glyph unicode="&#x2019;" horiz-adv-x="372" d="M315 983l181 440h127l-213 -440h-95z" />
<glyph unicode="&#x201a;" horiz-adv-x="364" d="M-4 -260l180 440h127l-213 -440h-94z" />
<glyph unicode="&#x201c;" horiz-adv-x="679" d="M309 983l213 440h94l-180 -440h-127zM618 983l213 440h95l-181 -440h-127z" />
<glyph unicode="&#x201d;" horiz-adv-x="679" d="M315 983l181 440h127l-213 -440h-95zM623 983l180 440h127l-213 -440h-94z" />
<glyph unicode="&#x201e;" horiz-adv-x="653" d="M-27 -260l213 440h95l-181 -440h-127zM285 -260l213 440h94l-180 -440h-127z" />
<glyph unicode="&#x2022;" horiz-adv-x="1007" d="M367 219v590h512v-590h-512z" />
<glyph unicode="&#x2026;" horiz-adv-x="1325" d="M117 0l47 205h125l-47 -205h-125zM604 0l47 205h125l-47 -205h-125zM1085 0l48 205h124l-47 -205h-125z" />
<glyph unicode="&#x202f;" horiz-adv-x="381" />
<glyph unicode="&#x2039;" horiz-adv-x="536" d="M178 479l23 64l420 280l-39 -129l-279 -188l186 -209l-34 -115z" />
<glyph unicode="&#x203a;" horiz-adv-x="536" d="M150 182l38 129l279 189l-186 209l34 114l277 -297l-23 -63z" />
<glyph unicode="&#x205f;" horiz-adv-x="476" />
<glyph unicode="&#x20ac;" d="M209 442l24 103h89q18 137 49 235h-84l24 103h95q84 219 231 355t352 136q127 0 277 -33l45 -10l-27 -98q-158 33 -303 33t-259 -104.5t-187 -278.5h579l-22 -103h-594q-39 -121 -54 -235h594l-22 -103h-580q-2 -25 -2 -69q0 -145 63.5 -214t200.5 -69q135 0 271 25l45 8 l-6 -100q-174 -43 -328 -43q-371 0 -371 389q0 49 2 73h-102z" />
<glyph unicode="&#x2122;" horiz-adv-x="1437" d="M451 1196v88h409v-88h-149v-516h-95v516h-165zM926 678v606h131l149 -453l156 453h129v-606h-90v485l-154 -458h-82l-147 458v-485h-92z" />
<glyph unicode="&#x25fc;" horiz-adv-x="1024" d="M0 0v1024h1024v-1024h-1024z" />
</font>
</defs>
</svg>
