<?xml version="1.0" standalone="no"?>
<!DOCTYPE svg PUBLIC "-//W3C//DTD SVG 1.1//EN" "http://www.w3.org/Graphics/SVG/1.1/DTD/svg11.dtd" >
<svg xmlns="http://www.w3.org/2000/svg" xmlns:xlink="http://www.w3.org/1999/xlink" version="1.1">
<metadata></metadata>
<defs>
<font id="titillium_websemibold_italic" horiz-adv-x="1146" >
<font-face units-per-em="2048" ascent="1638" descent="-410" />
<missing-glyph horiz-adv-x="450" />
<glyph horiz-adv-x="0" />
<glyph unicode="&#xd;" horiz-adv-x="681" />
<glyph unicode=" "  horiz-adv-x="450" />
<glyph unicode="&#x09;" horiz-adv-x="450" />
<glyph unicode="&#xa0;" horiz-adv-x="450" />
<glyph unicode="!" horiz-adv-x="356" d="M68 0l63 276h225l-63 -276h-225zM188 504l205 930h234l-232 -930h-207z" />
<glyph unicode="&#x22;" horiz-adv-x="632" d="M336 922l115 493h387l-129 -493h-373z" />
<glyph unicode="#" d="M115 350l47 189h209l69 280h-209l48 187h208l88 352h195l-88 -352h258l88 352h195l-88 -352h208l-45 -187h-211l-69 -280h211l-47 -189h-209l-88 -350h-195l86 350h-256l-88 -350h-194l86 350h-209zM565 539h258l70 280h-258z" />
<glyph unicode="$" d="M186 47l37 160q111 -18 223 -29l187 440q-133 57 -190.5 127t-57.5 195q0 195 126 315.5t339 120.5q51 0 102 -6l92 219h150l-102 -239l153 -39l-41 -158q-88 14 -184 25l-176 -410q143 -63 195.5 -130t52.5 -192q0 -223 -135.5 -346t-366.5 -123q-29 0 -82 5l-94 -226 h-146l103 244zM590 170h2q274 0 274 252q0 53 -21.5 83t-86.5 60zM608 963q0 -53 22.5 -83t88.5 -61l155 371h-22q-115 0 -179.5 -60.5t-64.5 -166.5z" />
<glyph unicode="%" d="M262 12l811 1452l137 -47l-811 -1452zM303 1021q0 56 16 124q72 291 312 291q180 0 180 -170q0 -53 -16 -121q-74 -295 -310 -295q-115 0 -157 74q-25 41 -25 97zM471 1049q0 -60 47 -60q41 0 64.5 36t42 108.5t18.5 109.5q0 55 -47 55q-39 0 -63.5 -35.5t-43 -106.5 t-18.5 -107zM670 174q0 53 16 121q72 291 309 291q180 0 181 -170q0 -53 -17 -121q-73 -295 -309 -295q-180 0 -180 174zM836 195q0 -55 47 -56q39 0 63.5 37t43 108.5t18.5 108.5q0 55 -47 56q-39 0 -64 -36t-43 -109t-18 -109z" />
<glyph unicode="&#x26;" horiz-adv-x="1306" d="M139 335q0 175 99.5 294t310.5 200q-57 104 -57 211q0 190 109.5 287.5t289.5 97.5q332 0 332 -282q0 -150 -85 -244t-294 -176l186 -254q29 41 62.5 121t48.5 139h207q-25 -94 -86.5 -215t-114.5 -190l176 -213l-154 -134l-161 207q-197 -207 -461 -207 q-223 0 -315.5 91.5t-92.5 266.5zM371 346q0 -178 217 -178q82 0 169 44t140 110l-266 374q-145 -61 -202.5 -146t-57.5 -204zM715 1023q0 -103 49 -175q137 63 186 123.5t49 152.5q0 115 -112 115q-84 0 -128 -56.5t-44 -159.5z" />
<glyph unicode="'" horiz-adv-x="303" d="M262 922l115 493h207l-129 -493h-193z" />
<glyph unicode="(" horiz-adv-x="473" d="M131 254q0 184 49 383t119 352q145 319 258 475l49 68h207q-55 -82 -144 -253t-148.5 -317.5t-109 -343t-49.5 -344.5q0 -276 25 -462l8 -64h-211q-53 188 -53 506z" />
<glyph unicode=")" horiz-adv-x="475" d="M-41 -242q55 82 144.5 253t148.5 317.5t108.5 343t49.5 344.5q0 276 -25 463l-8 63h211q53 -188 53 -506q0 -184 -49 -382.5t-119 -352.5q-145 -319 -258 -475l-49 -68h-207z" />
<glyph unicode="*" horiz-adv-x="858" d="M342 938l217 162l-211 151l80 111l211 -154l82 252l131 -43l-80 -254h258v-131h-260l80 -250l-127 -39l-84 252l-215 -161z" />
<glyph unicode="+" d="M225 414v200h363v367h200v-367h369v-200h-369v-371h-200v371h-363z" />
<glyph unicode="," horiz-adv-x="366" d="M-72 -266l224 542h243l-284 -542h-183z" />
<glyph unicode="-" horiz-adv-x="608" d="M147 444l52 201h512l-49 -201h-515z" />
<glyph unicode="." horiz-adv-x="325" d="M51 0l62 276h225l-62 -276h-225z" />
<glyph unicode="/" horiz-adv-x="915" d="M80 37l881 1423l206 -74l-878 -1423z" />
<glyph unicode="0" d="M201 393q0 272 77.5 495.5t222 354.5t328.5 131q428 0 428 -419.5t-177 -698.5t-453 -279q-426 0 -426 416zM434 440.5q0 -145.5 46 -206t158 -60.5t205 124t137 293t44 316.5t-46 210t-158.5 62.5t-206 -128t-136.5 -297t-43 -314.5z" />
<glyph unicode="1" d="M430 1065l508 287h199l-312 -1352h-227l250 1081l-356 -196z" />
<glyph unicode="2" d="M133 0l45 186l457 392q196 167 279 262.5t83 180.5t-51 122t-145 37q-160 0 -320 -29l-53 -8l29 168q201 66 391 65q383 0 383 -307q0 -162 -87 -280.5t-272 -262.5l-426 -329h603l-48 -197h-868z" />
<glyph unicode="3" d="M131 49l49 160q229 -35 369.5 -35t232.5 71.5t92 196.5q0 74 -47 110t-155 38l-262 2l43 172l264 10q92 2 182 78t90 176q0 152 -205 152q-152 0 -311 -25l-53 -8l22 153q188 74 390 74t296.5 -69.5t94.5 -213t-62.5 -229.5t-197.5 -147q78 -41 110.5 -97.5t32.5 -164.5 q0 -215 -157.5 -345.5t-409.5 -130.5q-90 0 -191.5 17.5t-159.5 36.5z" />
<glyph unicode="4" d="M150 240l38 168l600 944h248l-604 -922h361l92 397h225l-92 -397h141l-45 -190h-139l-57 -248h-226l58 248h-600z" />
<glyph unicode="5" d="M135 57l51 176q233 -59 382 -59t245 93t96 225q0 164 -190 163q-109 0 -223 -45l-37 -16l-168 37l221 723h791l-46 -197h-608l-133 -379q163 74 272 74q354 0 355 -315q0 -242 -157 -401t-392 -159q-100 0 -215 19.5t-178 40.5z" />
<glyph unicode="6" d="M215 451q0 152 49 310.5t139.5 297.5t237.5 227t324 88q129 0 288 -33l52 -10l-70 -184q-162 33 -324 33q-283 0 -411 -398q174 78 315 78q367 0 367 -344q0 -242 -144.5 -390.5t-406.5 -148.5q-197 0 -306.5 119t-109.5 355zM449 425q0 -97 48 -174t146 -77 q150 0 227.5 84t77.5 231q0 174 -182 175q-147 0 -262 -50l-37 -14q-18 -78 -18 -175z" />
<glyph unicode="7" d="M266 31l742 1044l16 80h-604l45 197h831l-69 -303l-754 -1082z" />
<glyph unicode="8" d="M133 297q0 133 88 235.5t209 167.5q-72 57 -92.5 103.5t-20.5 111.5q0 184 155 322.5t431 138.5q197 0 300.5 -75.5t103.5 -196.5q0 -268 -271 -404q137 -80 137.5 -260t-168.5 -323.5t-454 -143.5q-418 0 -418 324zM381 342q0 -90 53 -131t186.5 -41t223.5 83t90 179 q0 66 -30 100.5t-103 59.5h-191q-98 -31 -163.5 -95.5t-65.5 -154.5zM551 938q0 -55 22.5 -89t83.5 -67h191q82 35 148.5 99.5t66.5 138.5q0 160 -211 160q-137 0 -219 -74t-82 -168z" />
<glyph unicode="9" d="M162 23l69 196q133 -33 290 -33t272.5 98.5t160.5 276.5q-221 -63 -336 -63q-344 0 -344 327q0 229 163 389t427 160q203 0 291 -147q70 -117 70 -314q0 -49 -4 -104q-12 -205 -77 -365.5t-167 -261.5q-209 -205 -504 -205q-135 0 -268 35zM498 852q0 -72 41 -111 t149.5 -39t261.5 35l51 11q21 91 21 167q0 252 -209 252q-121 0 -212 -75.5t-101 -198.5q-2 -23 -2 -41z" />
<glyph unicode=":" horiz-adv-x="333" d="M53 0l62 276h225l-61 -276h-226zM203 637l61 276h225l-61 -276h-225z" />
<glyph unicode=";" horiz-adv-x="380" d="M-63 -266l223 542h243l-284 -542h-182zM238 637l61 276h225l-61 -276h-225z" />
<glyph unicode="&#x3c;" d="M227 422v184l840 393v-227l-604 -254l604 -266v-229z" />
<glyph unicode="=" d="M244 211v201h897v-201h-897zM244 616v201h897v-201h-897z" />
<glyph unicode="&#x3e;" d="M313 23v229l605 266l-605 254v227l840 -393v-184z" />
<glyph unicode="?" horiz-adv-x="868" d="M264 0l68 299h225l-68 -299h-225zM348 1196l23 176q182 53 323 53q359 0 359 -297q0 -143 -65.5 -231t-256.5 -227q-123 -92 -139 -172l-19 -82h-208q0 86 14 159q20 111 199 242q139 102 189 159.5t50 129.5t-43 96.5t-117 24.5q-143 0 -264 -23z" />
<glyph unicode="@" horiz-adv-x="1941" d="M166 285q0 129 33 264q119 500 384 717t722 217q580 0 712 -365q39 -104 39 -221q0 -131 -41 -291q-88 -352 -202.5 -489t-296 -137t-226.5 100q-72 -37 -187.5 -70t-207.5 -33t-156.5 47.5t-85.5 120.5q-25 90 -24.5 175.5t16.5 152.5q111 573 518 574q109 0 457 -60 q-27 -106 -91.5 -396t-64.5 -330t22.5 -55.5t72.5 -15.5q78 0 136 94.5t117 344.5q37 156 37 238.5t-20.5 161.5t-83.5 138q-135 127 -485.5 127t-556 -183t-295.5 -562q-33 -135 -33 -244.5t31.5 -207t101.5 -171.5q147 -156 475 -155l281 18l-41 -188q-199 -18 -327 -18.5 t-260 37.5t-220 106q-250 195 -250 559zM850 340q0 -170 108 -172q123 0 285 90q8 94 121 569q-123 31 -205 31q-117 0 -184.5 -102.5t-106.5 -284.5q-18 -72 -18 -131z" />
<glyph unicode="A" horiz-adv-x="1130" d="M37 0l661 1403h408l-12 -1403h-228v293h-458l-142 -293h-229zM496 494h376l11 710h-52z" />
<glyph unicode="B" horiz-adv-x="1177" d="M143 0l324 1403h473q354 0 354 -291q0 -256 -245 -389q84 -41 116.5 -97.5t32.5 -144.5q0 -213 -140 -347t-405 -134h-510zM418 197h280q123 0 194 75.5t71 202.5q-1 139 -177 139h-272zM557 807h256q106 0 177 73.5t71 188.5q0 72 -38 104.5t-120 32.5h-252z" />
<glyph unicode="C" horiz-adv-x="1019" d="M215 381q0 297 102 555q55 139 136.5 246.5t204 175t272.5 67.5q137 0 295 -41l51 -14l-53 -172q-139 29 -293 29t-264.5 -127t-162.5 -313.5t-52 -389.5q0 -221 202 -221q129 0 285 25l47 6l-16 -180q-186 -50 -344 -50q-410 0 -410 404z" />
<glyph unicode="D" horiz-adv-x="1241" d="M143 0l326 1403h444q430 0 430 -422q0 -362 -167 -657q-82 -145 -221.5 -234.5t-313.5 -89.5h-498zM420 199h244q111 0 200.5 80.5t140 203.5t77 252t26.5 247t-58.5 170t-181.5 52h-219z" />
<glyph unicode="E" horiz-adv-x="1024" d="M143 0l324 1403h805l-47 -199h-576l-90 -397h463l-47 -201h-461l-94 -407h577l-47 -199h-807z" />
<glyph unicode="F" horiz-adv-x="980" d="M143 0l326 1403h788l-47 -199h-561l-108 -481h471l-49 -199h-469l-121 -524h-230z" />
<glyph unicode="G" horiz-adv-x="1167" d="M219 399q0 326 113 584q125 279 352 385q125 57 246 57q219 0 389 -55l55 -18l-53 -166q-205 41 -387 41q-123 0 -218 -80t-151 -207q-110 -252 -110 -538v-5q0 -221 237 -221q82 0 156 17l24 4l86 370h-165l45 191h393l-170 -727q-155 -54 -395 -54q-446 0 -447 422z " />
<glyph unicode="H" horiz-adv-x="1273" d="M143 0l326 1403h227l-135 -590h526l138 590h227l-324 -1403h-227l139 614h-526l-141 -614h-230z" />
<glyph unicode="I" horiz-adv-x="516" d="M143 0l326 1403h227l-323 -1403h-230z" />
<glyph unicode="J" horiz-adv-x="563" d="M12 -143l39 200q104 2 140 36t67 173l264 1137h228l-265 -1141q-59 -268 -139 -336.5t-334 -68.5z" />
<glyph unicode="K" horiz-adv-x="1089" d="M143 0l326 1403h227l-145 -625l156 13l421 612h252l-491 -705l172 -698h-240l-139 590l-176 -12l-133 -578h-230z" />
<glyph unicode="L" horiz-adv-x="874" d="M143 0l326 1403h227l-276 -1204h489l-45 -199h-721z" />
<glyph unicode="M" horiz-adv-x="1607" d="M143 0l326 1403h362l41 -1094l547 1094h369l-324 -1403h-229l281 1204h-17l-571 -1147h-221l-43 1147h-15l-276 -1204h-230z" />
<glyph unicode="N" horiz-adv-x="1314" d="M143 0l326 1403h375l135 -1163h31l264 1163h221l-324 -1403h-358l-147 1178h-31l-275 -1178h-217z" />
<glyph unicode="O" horiz-adv-x="1269" d="M217 401q0 266 83 506t241 377q158 141 385 141q446 0 446 -424q0 -279 -85 -524.5t-251 -378.5q-156 -121 -377 -121t-331.5 102.5t-110.5 321.5zM453 451.5q0 -162.5 53 -219t176 -56.5t209 76q115 102 180.5 313t65.5 416q0 131 -53.5 188.5t-175.5 57.5t-197 -68 q-119 -109 -188.5 -327t-69.5 -380.5z" />
<glyph unicode="P" horiz-adv-x="1120" d="M143 0l326 1403h420q207 0 301 -88t94 -281q0 -283 -153.5 -441.5t-425.5 -158.5h-232l-100 -434h-230zM518 633h219q150 0 232 108.5t82 290.5q0 88 -42 130t-139 42h-221z" />
<glyph unicode="Q" horiz-adv-x="1269" d="M217 401q0 266 83 506t241 377q158 141 385 141q446 0 446 -424q0 -279 -85 -524.5t-251 -378.5q-31 -27 -82 -51l99 -283l-215 -71l-90 291q-48 -7 -93 -7q-217 0 -327.5 102.5t-110.5 321.5zM453 451.5q0 -162.5 53 -219t176 -56.5t209 76q115 102 180.5 313t65.5 416 q0 131 -53.5 188.5t-175.5 57.5t-197 -68q-119 -109 -188.5 -327t-69.5 -380.5z" />
<glyph unicode="R" horiz-adv-x="1148" d="M143 0l326 1403h416q205 0 303 -88t98 -288t-97 -334t-237 -181l131 -512h-227l-115 481h-258l-110 -481h-230zM528 678h236q131 0 209 98t78 222t-41 166t-142 42h-217z" />
<glyph unicode="S" horiz-adv-x="1017" d="M109 49l36 166q236 -39 383 -39q285 0 285 260q0 72 -39 105.5t-185.5 93t-211 132.5t-64.5 206q0 203 131 327.5t353 124.5q92 0 193.5 -16t156.5 -33l57 -18l-41 -164q-221 37 -352 37t-198.5 -61.5t-67.5 -172.5q0 -70 40 -103.5t192.5 -95t211 -131t58.5 -204.5 q0 -231 -140.5 -358.5t-380.5 -127.5q-92 0 -196.5 17.5t-161.5 36.5z" />
<glyph unicode="T" horiz-adv-x="944" d="M297 1204l47 199h905l-47 -199h-340l-278 -1204h-228l277 1204h-336z" />
<glyph unicode="U" horiz-adv-x="1216" d="M219 285q0 86 25 209l211 909h229l-219 -942q-18 -82 -19 -152q0 -133 209 -133q141 0 206 65.5t100 213.5l219 948h229l-219 -948q-57 -250 -187.5 -364t-347.5 -114q-436 0 -436 308z" />
<glyph unicode="V" horiz-adv-x="1128" d="M350 0l8 1403h228l-25 -1204h78l545 1204h229l-649 -1403h-414z" />
<glyph unicode="W" horiz-adv-x="1738" d="M307 0l60 1403h229l-78 -1192h41l502 1171h250l-56 -1171h39l494 1192h227l-602 -1403h-350l55 1079l-450 -1079h-361z" />
<glyph unicode="X" horiz-adv-x="1058" d="M12 0l545 707l-203 696h242l135 -533l389 533h244l-537 -701l209 -702h-237l-146 537l-397 -537h-244z" />
<glyph unicode="Y" horiz-adv-x="1021" d="M334 1403h231l127 -594l402 594h241l-583 -807l-142 -596h-213l142 610z" />
<glyph unicode="Z" horiz-adv-x="1007" d="M76 0l55 248l805 905l12 51h-594l47 199h854l-57 -252l-809 -901l-12 -51h600l-47 -199h-854z" />
<glyph unicode="[" horiz-adv-x="530" d="M4 -250l416 1780h438l-45 -191h-209l-325 -1398h206l-47 -191h-434z" />
<glyph unicode="\" horiz-adv-x="940" d="M383 1430l233 8l269 -1430l-232 -8z" />
<glyph unicode="]" horiz-adv-x="528" d="M-33 -250l45 191h209l326 1398h-207l47 191h434l-415 -1780h-439z" />
<glyph unicode="^" d="M168 647l389 705h193l393 -705h-234l-254 488l-254 -488h-233z" />
<glyph unicode="_" horiz-adv-x="1067" d="M-10 -373l47 209h917l-47 -209h-917z" />
<glyph unicode="`" horiz-adv-x="1060" d="M532 1374l107 180l420 -188l-94 -162z" />
<glyph unicode="a" horiz-adv-x="1056" d="M172 298q0 138 32 261t91 234.5t162.5 182.5t232.5 71q115 0 385 -46l86 -14l-153 -663l-56 -320l-219 -8q23 147 31 186q-96 -127 -219 -182q-49 -23 -96 -23q-141 0 -209 91.5t-68 229.5zM397 319q0 -76 28 -113.5t86 -37.5t128 54t117 110l47 55l104 440 q-139 31 -221 31t-154 -92q-135 -170 -135 -447z" />
<glyph unicode="b" horiz-adv-x="1054" d="M129 39l324 1411h223l-123 -530q47 47 129 87t143 40q293 0 293 -324q0 -188 -57 -354t-180 -277.5t-291 -111.5q-184 0 -389 45zM385 190q111 -23 194 -23q2 1 4 1q85 0 147.5 60.5t94.5 148.5q66 180 66 323q0 72 -26.5 114t-89 42t-126 -32.5t-102.5 -65.5l-39 -35z " />
<glyph unicode="c" horiz-adv-x="833" d="M176 313q0 315 139.5 524.5t397.5 209.5q117 0 241 -39l43 -15l-57 -164q-147 25 -235 25q-145 0 -223.5 -148.5t-78.5 -342t179 -193.5q88 0 186 16l37 7l-17 -168q-146 -47 -292 -47q-1 0 -1 -1q-145 1 -232 89t-87 247z" />
<glyph unicode="d" horiz-adv-x="1056" d="M172 319.5q0 169.5 56.5 332.5t177 277.5t280.5 114.5q80 0 215 -28l43 -10l103 444h223l-336 -1450h-215l26 139q-14 -18 -40.5 -44.5t-104 -72t-149.5 -45.5q-137 0 -208 86.5t-71 256zM397 313q0 -147 125 -147q45 0 114 47t114 94l45 47l108 473q-125 29 -215 29 t-158.5 -92t-100.5 -214t-32 -237z" />
<glyph unicode="e" horiz-adv-x="962" d="M174 309q0 291 129 502q66 106 176.5 169.5t251.5 63.5q336 0 336 -280q0 -188 -134 -262t-437 -74h-86q-13 -47 -13 -115q-1 -67 47 -106t117 -39q147 0 291 25l53 10l-22 -168q-186 -57 -377 -58q-332 0 -332 332zM436 596h96q172 0 244 37t72 129q0 102 -127 102 q-213 0 -285 -268z" />
<glyph unicode="f" horiz-adv-x="655" d="M59 -442l297 1273h-102l45 193h100l15 61q49 213 127.5 300.5t234.5 87.5q84 0 158 -29l27 -10l-41 -166q-76 14 -137.5 14t-91 -47t-56.5 -152l-14 -59h241l-47 -190h-235l-195 -834l-127 -442h-199z" />
<glyph unicode="g" horiz-adv-x="976" d="M27 -201q0 100 71.5 168t186.5 125q-37 37 -37 89t29.5 101.5t58.5 77.5l31 29q-142 76 -142 249q0 172 115 290q115 119 305 119q82 0 191 -27l34 -8l301 12l-43 -182h-145q18 -47 18 -121q0 -156 -118.5 -272.5t-311.5 -116.5l-77 10q-45 -59 -45 -94t37.5 -48.5 t166.5 -30.5t207 -73.5t78 -177.5q0 -172 -135 -282.5t-348 -110.5q-428 0 -428 274zM231 -155.5q0 -55.5 50.5 -94.5t163 -39t197.5 45t85 138q0 49 -37 68.5t-152.5 36.5t-152.5 28q-57 -29 -105.5 -78t-48.5 -104.5zM432 651q0 -137 156 -137q94 0 151.5 65.5t57.5 145.5 q0 139 -162 139q-90 0 -146.5 -64.5t-56.5 -148.5z" />
<glyph unicode="h" horiz-adv-x="1038" d="M123 0l334 1450h221l-127 -559q16 18 43 44t102.5 69t143.5 43q125 0 185 -75t60 -180.5t-43 -283.5l-116 -508h-221l114 494q37 147 37 220.5t-23.5 106.5t-73.5 33t-112.5 -42t-103.5 -85l-41 -43l-158 -684h-221z" />
<glyph unicode="i" horiz-adv-x="464" d="M123 0l235 1024h222l-236 -1024h-221zM391 1176l55 239h226l-56 -239h-225z" />
<glyph unicode="j" horiz-adv-x="464" d="M-160 -297q170 86 212 131t71 166l235 1024h222l-236 -1024q-37 -156 -71.5 -225.5t-84.5 -102.5q-106 -74 -276 -147zM389 1165l55 238h224l-54 -238h-225z" />
<glyph unicode="k" horiz-adv-x="937" d="M123 0l334 1450h221l-191 -823l97 10l309 385h248l-391 -483l161 -539h-229l-131 453l-105 -9l-102 -444h-221z" />
<glyph unicode="l" horiz-adv-x="473" d="M125 0l336 1450h221l-334 -1450h-223z" />
<glyph unicode="m" horiz-adv-x="1587" d="M123 0l235 1024h213l-22 -133q6 6 15 16.5t41 38t67 47.5q86 53 171 53q1 0 2 1q84 0 137 -40q54 -40 67 -81l14 -41q18 18 50 44.5t118 72t160 45.5q125 0 184 -75t59 -177.5t-39 -286.5l-116 -508h-224l119 494q37 172 37 221q0 139 -102 139q-43 0 -102.5 -37 t-96.5 -74l-37 -36q-10 -111 -33 -199l-116 -508h-222l115 494q37 172 37 227q0 133 -109 133q-41 0 -102 -42t-102 -85l-39 -43l-158 -684h-221z" />
<glyph unicode="n" horiz-adv-x="1036" d="M123 0l235 1024h213l-22 -135q16 18 42.5 43.5t103.5 70t145 44.5q125 0 185 -75t60 -182.5t-43 -279.5l-116 -510h-221l114 494q37 172 37 233t-23.5 94t-75.5 33t-113.5 -42t-102.5 -85l-39 -43l-158 -684h-221z" />
<glyph unicode="o" horiz-adv-x="1013" d="M174 342q0 176 61.5 335t182 263t272.5 104q383 0 383 -368q0 -176 -57.5 -333t-179 -261.5t-283.5 -104.5q-379 0 -379 365zM395 340q0 -174 158 -174q133 0 216 155.5t83 356.5q0 84 -41 131t-121 47q-131 0 -213 -157.5t-82 -358.5z" />
<glyph unicode="p" horiz-adv-x="1054" d="M20 -440l338 1464h217l-28 -139q16 18 42.5 44.5t103.5 72t143 45.5q143 0 213.5 -88.5t70.5 -253t-56 -329.5t-177 -280.5t-281 -115.5q-104 0 -219 28l-41 10l-106 -458h-220zM389 199q125 -31 215 -31t158.5 93t100.5 213t32 233q0 149 -127 149q-43 0 -111.5 -47 t-115.5 -92l-45 -47z" />
<glyph unicode="q" horiz-adv-x="1052" d="M172 320.5q0 168.5 57.5 332.5t178 277.5t278.5 113.5q156 0 391 -45l82 -14l-325 -1421h-222l133 577q-6 -6 -15 -17t-41 -40t-64 -51q-86 -56 -172 -56q-137 0 -209 87.5t-72 256zM397 317q0 -149 123 -149h2q45 0 112.5 46t115.5 93l45 47l108 473q-125 29 -214 29 t-156.5 -89t-101.5 -211t-34 -239z" />
<glyph unicode="r" horiz-adv-x="667" d="M123 0l235 1024h220l-35 -150q70 55 169 107.5t173 65.5l-64 -230q-92 -27 -264 -108l-53 -25l-160 -684h-221z" />
<glyph unicode="s" horiz-adv-x="882" d="M98 37l41 166q195 -37 310 -37q219 0 219 149q0 39 -33 57.5t-150.5 49.5t-185.5 83t-68 152q0 178 121 282.5t297 104.5q170 0 309 -40l46 -13l-41 -166q-203 31 -336 31q-80 0 -126 -41t-46 -92t32.5 -71.5t120.5 -46t129 -42t82 -43.5q74 -47 74 -162 q0 -186 -125 -283.5t-328 -97.5q-156 0 -297 46z" />
<glyph unicode="t" horiz-adv-x="663" d="M215 181q0 89 31 216l102 437h-119l50 190h116l64 281h223l-66 -281h246l-47 -190h-244l-106 -455q-21 -86 -21 -137q0 -76 80 -76l148 12l-19 -162q-106 -39 -213.5 -39t-166 57.5t-58.5 146.5z" />
<glyph unicode="u" horiz-adv-x="1036" d="M188 252q0 76 41 262l117 510h221l-112 -494q-37 -147 -37 -227q0 -133 106 -133q43 0 104.5 42t102.5 85l41 43l158 684h221l-236 -1024h-213l23 135q-16 -18 -43 -43.5t-103.5 -70t-144.5 -44.5q-125 0 -185.5 75t-60.5 200z" />
<glyph unicode="v" horiz-adv-x="940" d="M268 1024h219l-10 -840h49l392 840h225l-498 -1024h-369z" />
<glyph unicode="w" horiz-adv-x="1531" d="M244 0l41 1024h223l-45 -834h43l366 814h254l-18 -814h43l346 834h225l-438 -1024h-377l19 709l-312 -709h-370z" />
<glyph unicode="x" horiz-adv-x="870" d="M23 0l411 512l-170 512h228l104 -352l260 352h227l-413 -528l172 -496h-228l-102 342l-256 -342h-233z" />
<glyph unicode="y" horiz-adv-x="942" d="M211 -440l221 440h-156l-8 1024h219l-10 -840h45l396 840h225l-709 -1464h-223z" />
<glyph unicode="z" horiz-adv-x="851" d="M74 0l39 186l594 648h-443l47 190h705l-45 -184l-596 -650h450l-49 -190h-702z" />
<glyph unicode="{" horiz-adv-x="612" d="M147 571l39 164q129 33 172 75t64 128q8 31 31.5 158t25.5 135q51 168 156.5 238.5t304.5 78.5l-37 -192q-104 -8 -154.5 -54.5t-70.5 -132.5l-47 -251q-29 -121 -83 -181.5t-163 -97.5q127 -63 127 -172q0 -53 -47 -216t-47 -208q0 -117 145 -117l-53 -192 q-147 2 -229 65.5t-82 180.5q0 51 45 216.5t45 204.5q0 104 -142 170z" />
<glyph unicode="|" horiz-adv-x="665" d="M338 -440v1890h221v-1890h-221z" />
<glyph unicode="}" horiz-adv-x="610" d="M-35 -272l37 192q104 8 154.5 54t70.5 132l47 252q29 121 83 181.5t163 97.5q-127 63 -127 170q0 55 47 218t47 208q0 117 -145 117l53 192q147 -2 229.5 -65.5t82.5 -180.5q0 -51 -45.5 -217t-45.5 -205q0 -104 142 -169l-39 -164q-129 -33 -172 -75t-64 -128 q-8 -31 -31.5 -158t-25.5 -135q-51 -168 -156.5 -238.5t-304.5 -78.5z" />
<glyph unicode="~" d="M252 569q129 106 246 107q59 0 212.5 -52.5t194.5 -52.5q70 0 178 64l35 20l19 -178q-37 -37 -108 -71.5t-127 -34.5t-215 52t-197.5 52t-93 -21.5t-89.5 -43.5l-35 -21z" />
<glyph unicode="&#xa1;" horiz-adv-x="344" d="M-39 -410l232 930h206l-204 -930h-234zM231 748l64 276h225l-63 -276h-226z" />
<glyph unicode="&#xa2;" d="M307 403.5q0 38.5 21 106.5q53 211 170.5 322.5t283.5 121.5l52 224h180l-56 -228l162 -20l-55 -189q-156 10 -229 11q-127 0 -195 -58.5t-98 -183.5q-14 -55 -14.5 -102.5t20.5 -77.5q37 -57 178 -58l236 11l-37 -189q-94 -12 -174 -16l-54 -236h-178l49 224 q-92 4 -153.5 45t-83 103t-23.5 106.5t-2 83z" />
<glyph unicode="&#xa3;" d="M158 0l43 190h196l115 506h-160l45 191h158l23 88q55 225 140 320.5t261 95.5q82 0 238 -33l47 -10l-52 -170q-135 16 -202.5 16t-99 -15.5t-54.5 -54.5q-33 -59 -59 -176l-15 -61h355l-45 -191h-353l-116 -506h229l145 35l-4 -190l-155 -35h-680z" />
<glyph unicode="&#xa4;" d="M207 182l145 146q-47 88 -47 188t47 186l-145 148l153 154l146 -148q88 47 187.5 47t187.5 -47l145 148l154 -154l-148 -148q47 -86 47 -186t-47 -188l148 -146l-154 -153l-145 147q-88 -49 -187.5 -49t-187.5 49l-146 -147zM510 516q0 -78 53 -131t130 -53t130.5 53 t53.5 131t-53.5 131t-130.5 53t-130 -53t-53 -131z" />
<glyph unicode="&#xa5;" d="M213 287l47 196h322l20 86l-8 27h-307l43 195h192l-225 561h246l213 -516l411 516h295l-461 -561h191l-45 -195h-295l-23 -29l-20 -84h313l-45 -196h-313l-68 -287h-227l70 287h-326z" />
<glyph unicode="&#xa6;" horiz-adv-x="669" d="M340 336h223v-776h-223v776zM340 686v764h223v-764h-223z" />
<glyph unicode="&#xa7;" horiz-adv-x="983" d="M49 -309l64 186q203 -29 310 -29t176 51.5t69 113t-35 81.5q-39 25 -187.5 64t-206 97t-57.5 144t39 162q59 113 150 178q-41 41 -41 135.5t31.5 165t90 134t157 103.5t186.5 40q139 0 299 -33l51 -10l-51 -189q-209 31 -314.5 31t-169 -46t-63.5 -128q0 -41 30.5 -66.5 t69.5 -38t80 -20.5t49 -10q246 -53 246 -246q0 -145 -170 -336q35 -53 35 -107.5t-9.5 -104.5t-42 -117.5t-83 -119.5t-145.5 -89t-185 -37q-147 0 -316 31zM410 468q0 -44 29.5 -64.5t101.5 -38.5q119 -37 166 -58q20 20 53 88t33 113t-35 69.5t-136.5 46t-123.5 38.5 q-23 -25 -55.5 -87.5t-32.5 -106.5z" />
<glyph unicode="&#xa8;" horiz-adv-x="1200" d="M465 1247l55 240h182l-55 -240h-182zM852 1247l53 240h185l-58 -240h-180z" />
<glyph unicode="&#xa9;" horiz-adv-x="1314" d="M309 891q0 244 158 406.5t399.5 162.5t396 -166t154.5 -408.5t-154.5 -405.5t-396 -163t-399.5 165t-158 409zM420 888.5q0 -192.5 126 -327.5t315.5 -135t316.5 134t127 327.5t-127 330t-315.5 136.5t-315.5 -136.5t-127 -329zM623 889q0 182 59.5 256t198.5 74 q78 0 161 -27l-12 -148q-74 14 -134 14.5t-79.5 -35.5t-19.5 -129t20.5 -134t73.5 -41l139 12l12 -141q-66 -33 -185.5 -33t-176.5 75t-57 257z" />
<glyph unicode="&#xaa;" horiz-adv-x="686" d="M231 815q0 147 93 217q63 45 188 51l152 9l12 47q6 27 -12.5 40t-65.5 13l-258 -14l22 129q156 43 289 43t189 -47q39 -33 39 -82.5t-11 -92.5l-65 -286q12 -18 41 -23l-35 -139q-113 0 -151 14t-56 47q-113 -59 -210 -59t-136 55q-25 37 -25 78zM426 877q0 -45 57 -46 q47 0 109 25l20 8l25 107l-119 -8q-76 -6 -90 -68q-2 -10 -2 -18z" />
<glyph unicode="&#xab;" horiz-adv-x="954" d="M133 451l39 102l479 315l-63 -219l-248 -153l172 -174l-55 -201zM592 451l39 102l479 315l-63 -219l-248 -153l172 -174l-56 -201z" />
<glyph unicode="&#xac;" d="M240 520v199h886v-494h-200v295h-686z" />
<glyph unicode="&#xad;" horiz-adv-x="608" d="M147 444l52 201h512l-49 -201h-515z" />
<glyph unicode="&#xae;" horiz-adv-x="1314" d="M309 891q0 244 157 406.5t399.5 162.5t397 -166t154.5 -408.5t-154.5 -405.5t-396 -163t-399.5 165t-158 409zM420 888.5q0 -192.5 128 -327.5t316.5 -135t314.5 134t126 327.5t-127 330t-314.5 136.5t-315.5 -136.5t-128 -329zM625 571v633h256q233 0 233 -205 q0 -78 -19.5 -121.5t-68.5 -76.5l96 -230h-172l-76 203h-86v-203h-163zM786 897h86q84 0 84 91t-96 91h-74v-182z" />
<glyph unicode="&#xaf;" horiz-adv-x="925" d="M455 1294l41 181h604l-43 -181h-602z" />
<glyph unicode="&#xb0;" d="M532 1126.5q0 133.5 84 216t217.5 82.5t216.5 -82.5t83 -216t-83 -215.5t-216.5 -82t-217.5 82t-84 215.5zM666 1126.5q0 -75.5 46 -123t121.5 -47.5t124 47.5t48.5 123t-48.5 123.5t-124 48t-121.5 -48t-46 -123.5z" />
<glyph unicode="&#xb1;" d="M207 55v201h932v-201h-932zM207 573v201h362v236h201v-236h369v-201h-369v-229h-201v229h-362z" />
<glyph unicode="&#xb2;" horiz-adv-x="573" d="M281 979l36 154l199 145q121 84 133 139q8 27 -11.5 38t-62.5 11l-167 -14l34 166q143 20 246 20q166 0 166 -120q0 -170 -182 -291l-121 -86h221l-39 -162h-452z" />
<glyph unicode="&#xb3;" horiz-adv-x="573" d="M270 975l52 158q119 -12 195.5 -12.5t90.5 55.5q2 8 2 16q0 37 -61 37h-135l37 147h131q57 0 71 54q6 25 -8 36t-51 11l-182 -13l28 156q135 18 237.5 18t141.5 -35.5t39 -72.5q0 -156 -113 -215q53 -25 54 -92q0 -27 -8 -62q-51 -203 -283 -203q-90 0 -201 13z" />
<glyph unicode="&#xb4;" horiz-adv-x="1132" d="M524 1374l508 189l19 -199l-508 -166z" />
<glyph unicode="&#xb5;" d="M70 -440l206 905l130 559h221l-129 -565q-21 -93 -21 -156q0 -133 107 -133q43 0 104.5 42t102.5 85l40 43l158 684h221l-235 -1024h-213l22 135q-16 -18 -42.5 -43.5t-103.5 -70t-140.5 -44.5t-106.5 19l-100 -436h-221z" />
<glyph unicode="&#xb6;" horiz-adv-x="1148" d="M291 952q0 186 132 334t331 148h639l-43 -181h-101l-299 -1253h-180l299 1253h-164l-299 -1253h-182l156 649q-150 2 -219.5 88t-69.5 215z" />
<glyph unicode="&#xb7;" horiz-adv-x="325" d="M156 457l67 301h226l-68 -301h-225z" />
<glyph unicode="&#xb8;" horiz-adv-x="1619" d="M616 -434l35 139q68 -4 109 -4q78 0 92 59q8 33 -9.5 43.5t-56.5 10.5h-59l45 196h94l-24 -88h12q182 0 182 -125q0 -23 -6 -51q-47 -199 -246 -199q-66 0 -145 15z" />
<glyph unicode="&#xb9;" horiz-adv-x="573" d="M399 1468l248 150h166l-158 -639h-180l109 440l-133 -78z" />
<glyph unicode="&#xba;" horiz-adv-x="700" d="M254 903q0 6 2 35t16 90q41 174 134 248t251 74q96 0 168 -36t84 -110q6 -31 6 -75t-16 -107q-43 -186 -136 -264t-263 -78q-121 0 -183.5 60.5t-62.5 162.5zM449 928q0 -43 20 -63.5t77.5 -20.5t95.5 39t57.5 111.5t19.5 111.5q0 86 -96 86q-63 0 -100.5 -36 t-55.5 -110.5t-18 -117.5z" />
<glyph unicode="&#xbb;" horiz-adv-x="976" d="M78 121l63 219l248 154l-172 174l55 200l324 -329l-39 -103zM555 121l63 219l248 154l-172 174l56 200l323 -329l-39 -103z" />
<glyph unicode="&#xbc;" horiz-adv-x="1263" d="M215 37l881 1423l207 -74l-879 -1423zM342 1468l248 150h166l-158 -639h-180l108 440l-133 -78zM766 84l37 149l213 406h198l-221 -393h97l67 182h156l-45 -182h35l-39 -162h-37l-21 -84h-178l21 84h-283z" />
<glyph unicode="&#xbd;" horiz-adv-x="1298" d="M215 37l881 1423l207 -74l-879 -1423zM342 1468l248 150h166l-158 -639h-180l108 440l-133 -78zM815 0l37 154l199 145q121 84 133 139q8 27 -11.5 38t-62.5 11l-168 -14l35 166q143 20 248 20q164 0 164 -120q0 -170 -183 -291l-121 -86h222l-39 -162h-453z" />
<glyph unicode="&#xbe;" horiz-adv-x="1271" d="M225 37l881 1423l207 -74l-879 -1423zM244 975l51 158q119 -12 194.5 -12.5t92.5 55.5q8 29 -7.5 41t-52.5 12h-135l37 147h131q25 0 45.5 14.5t26.5 39t-8.5 36t-51.5 11.5l-182 -13l29 156q135 18 237.5 18t141 -35.5t38.5 -72.5q0 -156 -112 -215q53 -25 53 -92 q0 -27 -8 -62q-51 -203 -283 -203q-90 0 -200 13zM776 84l37 149l213 406h199l-221 -393h96l67 182h156l-45 -182h35l-39 -162h-37l-20 -84h-179l21 84h-283z" />
<glyph unicode="&#xbf;" horiz-adv-x="862" d="M51 -104q0 143 65.5 231t256.5 227q123 92 139 172l18 82h209q0 -86 -14 -159q-20 -111 -199 -242q-139 -102 -189 -159.5t-50 -129.5t43 -96.5t116 -24.5q143 0 267 23l43 8l-23 -176q-182 -53 -323 -53q-359 0 -359 297zM547 725l67 299h226l-68 -299h-225z" />
<glyph unicode="&#xc0;" horiz-adv-x="1130" d="M37 0l661 1403h408l-12 -1403h-228v293h-458l-142 -293h-229zM496 494h376l11 710h-52zM657 1733l109 194l422 -188l-101 -172z" />
<glyph unicode="&#xc1;" horiz-adv-x="1130" d="M37 0l661 1403h408l-12 -1403h-228v293h-458l-142 -293h-229zM496 494h376l11 710h-52zM737 1759l508 189l21 -199l-510 -164z" />
<glyph unicode="&#xc2;" horiz-adv-x="1130" d="M37 0l661 1403h408l-12 -1403h-228v293h-458l-142 -293h-229zM496 494h376l11 710h-52zM588 1608l348 299h129l197 -299h-203l-78 135l-158 -135h-235z" />
<glyph unicode="&#xc3;" horiz-adv-x="1130" d="M37 0l661 1403h408l-12 -1403h-228v293h-458l-142 -293h-229zM496 494h376l11 710h-52zM594 1784q137 129 227 129q63 0 169 -49t126.5 -49t64.5 20t76 41l33 22l4 -155q-129 -125 -221 -125q-51 0 -158.5 49t-134.5 49q-45 0 -147 -65l-33 -23z" />
<glyph unicode="&#xc4;" horiz-adv-x="1130" d="M37 0l661 1403h408l-12 -1403h-228v293h-458l-142 -293h-229zM496 494h376l11 710h-52zM659 1636l56 240h184l-57 -240h-183zM1057 1636l55 240h184l-59 -240h-180z" />
<glyph unicode="&#xc5;" horiz-adv-x="1130" d="M37 0l641 1362q-10 27 -10 59.5t10 67.5q29 113 107.5 169t189 56t164.5 -55q37 -37 37 -84q0 -125 -70 -211l-12 -1364h-228v293h-458l-142 -293h-229zM496 494h376l11 710h-52zM819 1475q0 -63 92.5 -63.5t110.5 77.5q2 10 2 26.5t-22.5 35t-61.5 18.5q-96 0 -119 -80 q-2 -8 -2 -14z" />
<glyph unicode="&#xc6;" horiz-adv-x="1566" d="M39 0l663 1419h1119l-47 -217l-603 4l-94 -397h486l-47 -207h-488l-92 -387h600l-47 -215h-817l69 295h-344l-141 -295h-217zM494 506h299l163 698h-139z" />
<glyph unicode="&#xc7;" horiz-adv-x="1019" d="M215 381q0 297 102 555q55 139 136.5 246.5t204 175t272.5 67.5q137 0 295 -41l51 -14l-53 -172q-139 29 -293 29t-264.5 -127t-162.5 -313.5t-52 -389.5q0 -221 202 -221q129 0 285 25l47 6l-16 -180q-186 -50 -344 -50h-19l-14 -55h12q182 0 182 -125q0 -23 -6 -51 q-47 -199 -245 -199q-66 0 -146 15l-22 4l34 139q68 -4 109 -4q78 0 92 59q8 33 -9.5 43.5t-55.5 10.5h-60l39 172q-301 49 -301 395z" />
<glyph unicode="&#xc8;" horiz-adv-x="1024" d="M143 0l324 1403h805l-47 -199h-576l-90 -397h463l-47 -201h-461l-94 -407h577l-47 -199h-807zM608 1733l109 194l422 -188l-101 -172z" />
<glyph unicode="&#xc9;" horiz-adv-x="1024" d="M143 0l324 1403h805l-47 -199h-576l-90 -397h463l-47 -201h-461l-94 -407h577l-47 -199h-807zM721 1759l508 189l20 -199l-510 -164z" />
<glyph unicode="&#xca;" horiz-adv-x="1024" d="M143 0l324 1403h805l-47 -199h-576l-90 -397h463l-47 -201h-461l-94 -407h577l-47 -199h-807zM606 1610l348 299h129l197 -299h-203l-78 135l-157 -135h-236z" />
<glyph unicode="&#xcb;" horiz-adv-x="1024" d="M143 0l324 1403h805l-47 -199h-576l-90 -397h463l-47 -201h-461l-94 -407h577l-47 -199h-807zM627 1636l55 240h184l-57 -240h-182zM1024 1636l55 240h185l-60 -240h-180z" />
<glyph unicode="&#xcc;" horiz-adv-x="516" d="M143 0l326 1403h227l-323 -1403h-230zM299 1733l109 194l421 -188l-100 -172z" />
<glyph unicode="&#xcd;" horiz-adv-x="516" d="M143 0l326 1403h227l-323 -1403h-230zM459 1759l508 189l20 -199l-510 -164z" />
<glyph unicode="&#xce;" horiz-adv-x="516" d="M143 0l326 1403h227l-323 -1403h-230zM281 1610l348 299h129l196 -299h-202l-78 135l-158 -135h-235z" />
<glyph unicode="&#xcf;" horiz-adv-x="516" d="M143 0l326 1403h227l-323 -1403h-230zM336 1655l55 239h184l-57 -239h-182zM733 1655l55 239h185l-60 -239h-180z" />
<glyph unicode="&#xd0;" horiz-adv-x="1253" d="M156 0l137 594h-119l47 225h125l135 584h445q430 0 430 -422q0 -362 -168 -657q-82 -145 -221.5 -234.5t-313.5 -89.5h-497zM432 199h244q111 0 201 80.5t140 203.5t76.5 252t26.5 247t-58 170t-181 52h-219l-89 -385h254l-51 -225h-254z" />
<glyph unicode="&#xd1;" horiz-adv-x="1314" d="M143 0l326 1403h375l135 -1163h31l264 1163h221l-324 -1403h-358l-147 1178h-31l-275 -1178h-217zM678 1780q137 129 227 129q63 0 169 -49.5t126.5 -49.5t64.5 20.5t76 41.5l33 22l4 -155q-129 -125 -221 -125q-51 0 -158.5 49t-134.5 49q-45 0 -147 -65l-33 -23z" />
<glyph unicode="&#xd2;" horiz-adv-x="1269" d="M217 401q0 266 83 506t241 377q158 141 385 141q446 0 446 -424q0 -279 -85 -524.5t-251 -378.5q-156 -121 -377 -121t-331.5 102.5t-110.5 321.5zM453 451.5q0 -162.5 53 -219t176 -56.5t209 76q115 102 180.5 313t65.5 416q0 131 -53.5 188.5t-175.5 57.5t-197 -68 q-119 -109 -188.5 -327t-69.5 -380.5zM717 1733l108 194l422 -188l-100 -172z" />
<glyph unicode="&#xd3;" horiz-adv-x="1269" d="M217 401q0 266 83 506t241 377q158 141 385 141q446 0 446 -424q0 -279 -85 -524.5t-251 -378.5q-156 -121 -377 -121t-331.5 102.5t-110.5 321.5zM453 451.5q0 -162.5 53 -219t176 -56.5t209 76q115 102 180.5 313t65.5 416q0 131 -53.5 188.5t-175.5 57.5t-197 -68 q-119 -109 -188.5 -327t-69.5 -380.5zM809 1759l508 189l20 -199l-510 -164z" />
<glyph unicode="&#xd4;" horiz-adv-x="1269" d="M217 401q0 266 83 506t241 377q158 141 385 141q446 0 446 -424q0 -279 -85 -524.5t-251 -378.5q-156 -121 -377 -121t-331.5 102.5t-110.5 321.5zM453 451.5q0 -162.5 53 -219t176 -56.5t209 76q115 102 180.5 313t65.5 416q0 131 -53.5 188.5t-175.5 57.5t-197 -68 q-119 -109 -188.5 -327t-69.5 -380.5zM668 1608l348 299h129l196 -299h-202l-78 135l-158 -135h-235z" />
<glyph unicode="&#xd5;" horiz-adv-x="1269" d="M217 401q0 266 83 506t241 377q158 141 385 141q446 0 446 -424q0 -279 -85 -524.5t-251 -378.5q-156 -121 -377 -121t-331.5 102.5t-110.5 321.5zM453 451.5q0 -162.5 53 -219t176 -56.5t209 76q115 102 180.5 313t65.5 416q0 131 -53.5 188.5t-175.5 57.5t-197 -68 q-119 -109 -188.5 -327t-69.5 -380.5zM692 1780q137 129 228 129q63 0 168.5 -49.5t126 -49.5t64.5 20.5t77 41.5l33 22l4 -155q-130 -125 -222 -125q-51 0 -158.5 49t-133.5 49q-45 0 -148 -65l-33 -23z" />
<glyph unicode="&#xd6;" horiz-adv-x="1269" d="M217 401q0 266 83 506t241 377q158 141 385 141q446 0 446 -424q0 -279 -85 -524.5t-251 -378.5q-156 -121 -377 -121t-331.5 102.5t-110.5 321.5zM453 451.5q0 -162.5 53 -219t176 -56.5t209 76q115 102 180.5 313t65.5 416q0 131 -53.5 188.5t-175.5 57.5t-197 -68 q-119 -109 -188.5 -327t-69.5 -380.5zM702 1628l54 238h202l-57 -238h-199zM1106 1628l55 238h201l-57 -238h-199z" />
<glyph unicode="&#xd7;" d="M246 209l309 303l-307 303l141 141l303 -307l305 309l140 -141l-310 -305l310 -303l-142 -141l-303 309l-305 -309z" />
<glyph unicode="&#xd8;" horiz-adv-x="1269" d="M123 -172l184 272q-90 106 -90 301q0 266 83 506t241 377q158 141 385 141q147 0 248 -49l180 264l129 -53l-201 -293q90 -109 90 -293q0 -279 -85 -524.5t-251 -378.5q-156 -121 -381 -121q-143 0 -239 43l-178 -262zM453 422q0 -59 8 -94l590 866q-53 33 -159 33 t-181 -68q-119 -109 -188.5 -327t-69.5 -410zM541 205q57 -29 160.5 -29t189.5 76q115 102 180.5 313t65.5 416q0 53 -9 86z" />
<glyph unicode="&#xd9;" horiz-adv-x="1216" d="M219 285q0 86 25 209l211 909h229l-219 -942q-18 -82 -19 -152q0 -133 209 -133q141 0 206 65.5t100 213.5l219 948h229l-219 -948q-57 -250 -187.5 -364t-347.5 -114q-436 0 -436 308zM690 1733l109 194l422 -188l-101 -172z" />
<glyph unicode="&#xda;" horiz-adv-x="1216" d="M219 285q0 86 25 209l211 909h229l-219 -942q-18 -82 -19 -152q0 -133 209 -133q141 0 206 65.5t100 213.5l219 948h229l-219 -948q-57 -250 -187.5 -364t-347.5 -114q-436 0 -436 308zM741 1759l508 189l21 -199l-510 -164z" />
<glyph unicode="&#xdb;" horiz-adv-x="1216" d="M219 285q0 86 25 209l211 909h229l-219 -942q-18 -82 -19 -152q0 -133 209 -133q141 0 206 65.5t100 213.5l219 948h229l-219 -948q-57 -250 -187.5 -364t-347.5 -114q-436 0 -436 308zM629 1608l348 299h129l197 -299h-203l-78 135l-158 -135h-235z" />
<glyph unicode="&#xdc;" horiz-adv-x="1216" d="M219 285q0 86 25 209l211 909h229l-219 -942q-18 -82 -19 -152q0 -133 209 -133q141 0 206 65.5t100 213.5l219 948h229l-219 -948q-57 -250 -187.5 -364t-347.5 -114q-436 0 -436 308zM659 1628l56 238h200l-55 -238h-201zM1065 1628l53 238h203l-57 -238h-199z" />
<glyph unicode="&#xdd;" horiz-adv-x="1021" d="M334 1403h231l127 -594l402 594h241l-583 -807l-142 -596h-213l142 610zM688 1759l508 189l21 -199l-510 -164z" />
<glyph unicode="&#xde;" horiz-adv-x="1112" d="M141 0l334 1419h217l-53 -213h250q207 0 295 -137q57 -90 57 -211q0 -63 -16 -135q-49 -233 -196.5 -367.5t-360.5 -134.5h-6l-254 2l-52 -223h-215zM461 446h252q225 0 293 277q12 49 12 96t-23 90q-37 72 -157 74l-248 4z" />
<glyph unicode="&#xdf;" horiz-adv-x="1132" d="M121 0l252 1073q53 225 165.5 312.5t308 87.5t291 -72t95.5 -193t-45 -192.5t-148.5 -115.5t-140.5 -70.5t-37 -62.5t24.5 -60.5t116 -82t126 -102.5t34.5 -141q0 -186 -115.5 -295t-318.5 -109q-119 0 -254 37l-45 13l47 166q139 -27 240.5 -27t161 52t59.5 134 q0 45 -24.5 72t-115.5 81t-125 100t-34 135t49 149.5t152.5 111t135.5 84t32 89.5q0 109 -172 108q-113 0 -172.5 -54t-88.5 -184l-245 -1044h-209z" />
<glyph unicode="&#xe0;" horiz-adv-x="1056" d="M172 298q0 138 32 261t91 234.5t162.5 182.5t232.5 71q115 0 385 -46l86 -14l-153 -663l-56 -320l-219 -8q23 147 31 186q-96 -127 -219 -182q-49 -23 -96 -23q-141 0 -209 91.5t-68 229.5zM397 319q0 -76 28 -113.5t86 -37.5t128 54t117 110l47 55l104 440 q-139 31 -221 31t-154 -92q-135 -170 -135 -447zM604 1374l107 180l419 -188l-94 -162z" />
<glyph unicode="&#xe1;" horiz-adv-x="1056" d="M172 298q0 138 32 261t91 234.5t162.5 182.5t232.5 71q115 0 385 -46l86 -14l-153 -663l-56 -320l-219 -8q23 147 31 186q-96 -127 -219 -182q-49 -23 -96 -23q-141 0 -209 91.5t-68 229.5zM397 319q0 -76 28 -113.5t86 -37.5t128 54t117 110l47 55l104 440 q-139 31 -221 31t-154 -92q-135 -170 -135 -447zM674 1374l508 189l18 -199l-508 -166z" />
<glyph unicode="&#xe2;" horiz-adv-x="1056" d="M172 298q0 138 32 261t91 234.5t162.5 182.5t232.5 71q115 0 385 -46l86 -14l-153 -663l-56 -320l-219 -8q23 147 31 186q-96 -127 -219 -182q-49 -23 -96 -23q-141 0 -209 91.5t-68 229.5zM397 319q0 -76 28 -113.5t86 -37.5t128 54t117 110l47 55l104 440 q-139 31 -221 31t-154 -92q-135 -170 -135 -447zM459 1188l334 338h161l179 -338h-222l-69 151l-148 -151h-235z" />
<glyph unicode="&#xe3;" horiz-adv-x="1056" d="M172 298q0 138 32 261t91 234.5t162.5 182.5t232.5 71q115 0 385 -46l86 -14l-153 -663l-56 -320l-219 -8q23 147 31 186q-96 -127 -219 -182q-49 -23 -96 -23q-141 0 -209 91.5t-68 229.5zM397 319q0 -76 28 -113.5t86 -37.5t128 54t117 110l47 55l104 440 q-139 31 -221 31t-154 -92q-135 -170 -135 -447zM563 1395q131 123 221 123q57 0 150.5 -46.5t114.5 -46.5q37 0 131 62l32 20l9 -157q-127 -121 -217 -121q-49 0 -143.5 47t-119.5 47q-49 0 -143 -61l-31 -23z" />
<glyph unicode="&#xe4;" horiz-adv-x="1056" d="M172 298q0 138 32 261t91 234.5t162.5 182.5t232.5 71q115 0 385 -46l86 -14l-153 -663l-56 -320l-219 -8q23 147 31 186q-96 -127 -219 -182q-49 -23 -96 -23q-141 0 -209 91.5t-68 229.5zM397 319q0 -76 28 -113.5t86 -37.5t128 54t117 110l47 55l104 440 q-139 31 -221 31t-154 -92q-135 -170 -135 -447zM516 1247l55 240h203l-57 -240h-201zM922 1247l53 240h203l-58 -240h-198z" />
<glyph unicode="&#xe5;" horiz-adv-x="1056" d="M172 298q0 138 32 261t91 234.5t162.5 182.5t232.5 71q115 0 385 -46l86 -14l-153 -663l-56 -320l-219 -8q23 147 31 186q-96 -127 -219 -182q-49 -23 -96 -23q-141 0 -209 91.5t-68 229.5zM397 319q0 -76 28 -113.5t86 -37.5t128 54t117 110l47 55l104 440 q-139 31 -221 31t-154 -92q-135 -170 -135 -447zM673.5 1272q0.5 41 10.5 78q21 90 89.5 150.5t159.5 60.5t128 -56q25 -37 24.5 -75.5t-6.5 -69.5q-16 -102 -86.5 -162.5t-165 -60.5t-131.5 59q-23 35 -22.5 76zM805 1325q0 -14 13 -33.5t45 -19.5t59 22q37 31 36 62 q0 66 -57 65q-33 0 -58.5 -20.5t-31.5 -41t-6 -34.5z" />
<glyph unicode="&#xe6;" horiz-adv-x="1492" d="M115 203q0 59 10 102q55 258 332 303q147 25 297 25q18 57 18 106q0 96 -88 97q-145 0 -311 -21l-60 -6l35 199q248 37 393 36q178 0 230 -112q115 113 301 112q307 0 307 -294q0 -94 -29 -187l-39 -147l-583 4q-10 -61 -10 -98q0 -141 157 -142q147 0 297 13l58 6 l-39 -174q-195 -47 -386.5 -47.5t-265.5 104.5q-74 -33 -198.5 -69t-198.5 -36q-129 0 -186 101q-41 66 -41 125zM336 268q0 -98 82 -98q96 0 274 49q-4 25 -4 79t27 165q-131 -8 -213 -19q-133 -14 -160 -133q-6 -23 -6 -43zM967 592l383 -4q18 66 18 100.5t-2 50.5 q-10 113 -143 113q-104 0 -164 -64.5t-92 -195.5z" />
<glyph unicode="&#xe7;" horiz-adv-x="835" d="M178 313q0 315 139.5 524.5t397.5 209.5q117 0 243 -39l41 -15l-57 -164q-147 25 -235 25q-145 0 -223 -148.5t-78 -342t178 -193.5q88 0 186 16l37 7l-16 -168q-135 -43 -269 -48l-14 -55h12q182 0 182 -125q0 -23 -6 -51q-47 -199 -245 -199q-66 0 -146 15l-22 4 l34 139q68 -4 109 -4q78 0 92 59q8 33 -9 43.5t-56 10.5h-60l39 170q-121 18 -187.5 103t-66.5 226z" />
<glyph unicode="&#xe8;" horiz-adv-x="962" d="M174 309q0 291 129 502q66 106 176.5 169.5t251.5 63.5q336 0 336 -280q0 -188 -134 -262t-437 -74h-86q-12 -45 -12.5 -113.5t47 -107.5t116.5 -39q147 0 291 25l53 10l-22 -168q-186 -57 -377 -58q-332 0 -332 332zM426 1374l106 180l420 -188l-94 -162zM436 596h96 q172 0 244 37t72 129q0 102 -127 102q-213 0 -285 -268z" />
<glyph unicode="&#xe9;" horiz-adv-x="962" d="M174 309q0 291 129 502q66 106 176.5 169.5t251.5 63.5q336 0 336 -280q0 -188 -134 -262t-437 -74h-86q-12 -45 -12.5 -113.5t47 -107.5t116.5 -39q147 0 291 25l53 10l-22 -168q-186 -57 -377 -58q-332 0 -332 332zM436 596h96q172 0 244 37t72 129q0 102 -127 102 q-213 0 -285 -268zM575 1374l508 189l19 -199l-508 -166z" />
<glyph unicode="&#xea;" horiz-adv-x="962" d="M174 309q0 291 129 502q66 106 176.5 169.5t251.5 63.5q336 0 336 -280q0 -188 -134 -262t-437 -74h-86q-12 -45 -12.5 -113.5t47 -107.5t116.5 -39q147 0 291 25l53 10l-22 -168q-186 -57 -377 -58q-332 0 -332 332zM410 1188l331 338h164l176 -338h-219l-71 151 l-146 -151h-235zM436 596h96q172 0 244 37t72 129q0 102 -127 102q-213 0 -285 -268z" />
<glyph unicode="&#xeb;" horiz-adv-x="962" d="M174 309q0 291 129 502q66 106 176.5 169.5t251.5 63.5q336 0 336 -280q0 -188 -134 -262t-437 -74h-86q-12 -45 -12.5 -113.5t47 -107.5t116.5 -39q147 0 291 25l53 10l-22 -168q-186 -57 -377 -58q-332 0 -332 332zM436 596h96q172 0 244 37t72 129q0 102 -127 102 q-213 0 -285 -268zM469 1247l55 240h201l-55 -240h-201zM874 1247l54 240h202l-57 -240h-199z" />
<glyph unicode="&#xec;" horiz-adv-x="464" d="M123 0l235 1024h222l-236 -1024h-221zM152 1374l106 180l420 -188l-94 -162z" />
<glyph unicode="&#xed;" horiz-adv-x="464" d="M123 0l235 1024h222l-236 -1024h-221zM365 1374l507 189l19 -199l-508 -166z" />
<glyph unicode="&#xee;" horiz-adv-x="464" d="M123 0l235 1024h222l-236 -1024h-221zM154 1188l333 338h162l178 -338h-221l-69 151l-148 -151h-235z" />
<glyph unicode="&#xef;" horiz-adv-x="464" d="M123 0l235 1024h222l-236 -1024h-221zM195 1247l55 240h201l-56 -240h-200zM600 1247l53 240h203l-57 -240h-199z" />
<glyph unicode="&#xf0;" horiz-adv-x="1071" d="M156 305q0 49 12 103q37 215 180.5 349t345.5 134q123 0 228 -43l34 -14q6 33 7 63q0 168 -177 258l-221 -147l-78 122l131 87q-100 27 -157 38l76 195q197 -23 319 -74l207 140l74 -125l-138 -93q185 -134 185 -374q0 -92 -27 -197q-94 -389 -243.5 -567t-405.5 -178 q-203 0 -291 124q-61 86 -61 199zM389 344q0 -150 170 -149q246 0 352 436q-18 18 -103 37.5t-146 19.5q-102 0 -176 -79t-91 -199q-6 -37 -6 -66z" />
<glyph unicode="&#xf1;" horiz-adv-x="1036" d="M123 0l235 1024h213l-22 -135l39 39q39 39 111.5 79t140.5 40q125 0 185 -75t60 -182.5t-43 -279.5l-116 -510h-221l114 494q37 172 37 233t-23.5 94t-75.5 33t-124 -51t-131 -119l-158 -684h-221zM512 1395q131 123 221 123q57 0 149.5 -46.5t112.5 -46.5q39 0 135 62 l31 20l8 -157q-127 -121 -217 -121q-49 0 -143 47t-119 47q-49 0 -141 -61l-33 -23z" />
<glyph unicode="&#xf2;" horiz-adv-x="1013" d="M174 342q0 176 61.5 335t182 263t272.5 104q383 0 383 -368q0 -176 -57.5 -333t-179 -261.5t-283.5 -104.5q-379 0 -379 365zM395 340q0 -174 158 -174q133 0 216 155.5t83 356.5q0 84 -41 131t-121 47q-131 0 -213 -157.5t-82 -358.5zM485 1374l107 180l420 -188 l-94 -162z" />
<glyph unicode="&#xf3;" horiz-adv-x="1013" d="M174 342q0 176 61.5 335t182 263t272.5 104q383 0 383 -368q0 -176 -57.5 -333t-179 -261.5t-283.5 -104.5q-379 0 -379 365zM395 340q0 -174 158 -174q133 0 216 155.5t83 356.5q0 84 -41 131t-121 47q-131 0 -213 -157.5t-82 -358.5zM578 1374l507 189l19 -199 l-508 -166z" />
<glyph unicode="&#xf4;" horiz-adv-x="1013" d="M174 342q0 176 61.5 335t182 263t272.5 104q383 0 383 -368q0 -176 -57.5 -333t-179 -261.5t-283.5 -104.5q-379 0 -379 365zM395 340q0 -174 158 -174q133 0 216 155.5t83 356.5q0 84 -41 131t-121 47q-131 0 -213 -157.5t-82 -358.5zM440 1188l334 338h162l178 -338 h-221l-70 151l-147 -151h-236z" />
<glyph unicode="&#xf5;" horiz-adv-x="1013" d="M174 342q0 176 61.5 335t182 263t272.5 104q383 0 383 -368q0 -176 -57.5 -333t-179 -261.5t-283.5 -104.5q-379 0 -379 365zM395 340q0 -174 158 -174q133 0 216 155.5t83 356.5q0 84 -41 131t-121 47q-131 0 -213 -157.5t-82 -358.5zM469 1395q131 123 221 123 q55 0 149.5 -46.5t114.5 -46.5q37 0 131 62l33 20l8 -157q-127 -121 -217 -121q-49 0 -143 47t-119 47q-49 0 -143 -61l-31 -23z" />
<glyph unicode="&#xf6;" horiz-adv-x="1013" d="M174 342q0 176 61.5 335t182 263t272.5 104q383 0 383 -368q0 -176 -57.5 -333t-179 -261.5t-283.5 -104.5q-379 0 -379 365zM395 340q0 -174 158 -174q133 0 216 155.5t83 356.5q0 84 -41 131t-121 47q-131 0 -213 -157.5t-82 -358.5zM498 1247l55 240h182l-55 -240 h-182zM885 1247l53 240h184l-57 -240h-180z" />
<glyph unicode="&#xf7;" d="M334 494v225h139v158h436v-158h142v-225h-717zM580 47v242h221v-242h-221z" />
<glyph unicode="&#xf8;" horiz-adv-x="1013" d="M119 -170l153 240q-96 90 -96 271t61.5 340t182 263.5t272.5 104.5q92 0 176 -27l133 217l121 -53l-145 -228q98 -94 98 -274t-57 -337t-179 -261t-284 -104q-100 0 -174 24l-141 -229zM397 344q0 -41 9 -68l165 263l191 309q-31 12 -70 12q-131 0 -213 -157.5 t-82 -358.5zM487 180q31 -10 68 -10q133 0 216 155.5t83 356.5q0 35 -10 70l-170 -267z" />
<glyph unicode="&#xf9;" horiz-adv-x="1036" d="M188 252q0 76 41 262l117 510h221l-112 -494q-37 -147 -37 -227q0 -133 106 -133q43 0 104.5 42t102.5 85l41 43l158 684h221l-236 -1024h-213l23 135q-16 -18 -43 -43.5t-103.5 -70t-144.5 -44.5q-125 0 -185.5 75t-60.5 200zM492 1374l106 180l420 -188l-94 -162z" />
<glyph unicode="&#xfa;" horiz-adv-x="1036" d="M188 252q0 76 41 262l117 510h221l-112 -494q-37 -147 -37 -227q0 -133 106 -133q43 0 104.5 42t102.5 85l41 43l158 684h221l-236 -1024h-213l23 135q-16 -18 -43 -43.5t-103.5 -70t-144.5 -44.5q-125 0 -185.5 75t-60.5 200zM592 1374l508 189l18 -199l-508 -166z" />
<glyph unicode="&#xfb;" horiz-adv-x="1036" d="M188 252q0 76 41 262l117 510h221l-112 -494q-37 -147 -37 -227q0 -133 106 -133q43 0 104.5 42t102.5 85l41 43l158 684h221l-236 -1024h-213l23 135q-16 -18 -43 -43.5t-103.5 -70t-144.5 -44.5q-125 0 -185.5 75t-60.5 200zM424 1188l332 338h164l176 -338h-219 l-72 151l-146 -151h-235z" />
<glyph unicode="&#xfc;" horiz-adv-x="1036" d="M188 252q0 76 41 262l117 510h221l-112 -494q-37 -147 -37 -227q0 -133 106 -133q43 0 104.5 42t102.5 85l41 43l158 684h221l-236 -1024h-213l23 135q-16 -18 -43 -43.5t-103.5 -70t-144.5 -44.5q-125 0 -185.5 75t-60.5 200zM471 1247l55 240h201l-55 -240h-201z M877 1247l53 240h200l-55 -240h-198z" />
<glyph unicode="&#xfd;" horiz-adv-x="942" d="M211 -440l221 440h-156l-8 1024h219l-10 -840h45l396 840h225l-709 -1464h-223zM555 1374l508 189l18 -199l-508 -166z" />
<glyph unicode="&#xfe;" horiz-adv-x="1003" d="M16 -436l445 1882h209l-117 -502q125 100 239.5 100t182 -49t85 -122.5t17.5 -116.5t-2 -93.5t-26 -138.5q-80 -299 -208 -423t-347 -124q-70 0 -119 6.5t-49 8.5l-101 -428h-209zM373 193l162 -17q115 0 184 87t117 263q23 82 22.5 144.5t-30 116t-101.5 53.5 q-41 0 -98.5 -26t-91.5 -48l-35 -25z" />
<glyph unicode="&#xff;" horiz-adv-x="942" d="M211 -440l221 440h-156l-8 1024h219l-10 -840h45l396 840h225l-709 -1464h-223zM432 1247l55 240h201l-55 -240h-201zM838 1247l53 240h201l-56 -240h-198z" />
<glyph unicode="&#x152;" horiz-adv-x="1726" d="M205 354q0 152 47 353q90 377 254 556t424 179q106 0 241 -23h811l-49 -219h-600l-94 -389h481l-47 -209l-481 4l-92 -387h598l-51 -219h-805q-150 -23 -256 -23q-188 0 -281 86q-100 94 -100 291zM432 409.5q0 -106.5 54.5 -159.5t177.5 -53q53 0 221 14l237 997 q-117 12 -217 13q-168 0 -265 -118t-165 -394q-43 -193 -43 -299.5z" />
<glyph unicode="&#x153;" horiz-adv-x="1589" d="M168 328.5q0 70.5 27 189.5q63 256 186 391t352.5 135t294.5 -145q127 145 338 145q293 0 311 -256q2 -25 2 -80t-24 -135l-49 -157l-584 4q-14 -53 -14 -82t2 -41q12 -117 162.5 -116.5t300.5 12.5l57 6l-39 -174q-195 -47 -392.5 -47.5t-262.5 131.5 q-127 -131 -340 -132q-297 0 -324 242q-4 39 -4 109.5zM383 350q0 -47 2 -63q12 -111 162.5 -111t220.5 156q37 78 62.5 179t25.5 143t-2 59q-8 133 -154 133q-119 0 -185 -82t-99 -224.5t-33 -189.5zM1061 592l389 -4q18 88 18 117q0 86 -35.5 111.5t-124.5 25.5 t-153.5 -60.5t-93.5 -189.5z" />
<glyph unicode="&#x178;" horiz-adv-x="1021" d="M334 1403h231l127 -594l402 594h241l-583 -807l-142 -596h-213l142 610zM580 1636l55 240h184l-57 -240h-182zM977 1636l55 240h185l-60 -240h-180z" />
<glyph unicode="&#x2c6;" horiz-adv-x="1619" d="M752 1188l331 338h129l177 -338h-203l-72 151l-145 -151h-217z" />
<glyph unicode="&#x2dc;" horiz-adv-x="897" d="M424 1395q131 123 221 123q55 0 149.5 -46.5t114.5 -46.5q37 0 131 62l33 20l8 -157q-127 -121 -217 -121q-49 0 -143 47t-119 47q-49 0 -143 -61l-31 -23z" />
<glyph unicode="&#x2000;" horiz-adv-x="974" />
<glyph unicode="&#x2001;" horiz-adv-x="1948" />
<glyph unicode="&#x2002;" horiz-adv-x="974" />
<glyph unicode="&#x2003;" horiz-adv-x="1948" />
<glyph unicode="&#x2004;" horiz-adv-x="649" />
<glyph unicode="&#x2005;" horiz-adv-x="487" />
<glyph unicode="&#x2006;" horiz-adv-x="324" />
<glyph unicode="&#x2007;" horiz-adv-x="324" />
<glyph unicode="&#x2008;" horiz-adv-x="243" />
<glyph unicode="&#x2009;" horiz-adv-x="389" />
<glyph unicode="&#x200a;" horiz-adv-x="108" />
<glyph unicode="&#x2010;" horiz-adv-x="608" d="M147 444l52 201h512l-49 -201h-515z" />
<glyph unicode="&#x2011;" horiz-adv-x="608" d="M147 444l52 201h512l-49 -201h-515z" />
<glyph unicode="&#x2012;" horiz-adv-x="608" d="M147 444l52 201h512l-49 -201h-515z" />
<glyph unicode="&#x2013;" horiz-adv-x="1138" d="M184 451v190h1024v-190h-1024z" />
<glyph unicode="&#x2014;" horiz-adv-x="2162" d="M184 451v190h2048v-190h-2048z" />
<glyph unicode="&#x2018;" horiz-adv-x="362" d="M236 907l258 494h165l-202 -494h-221z" />
<glyph unicode="&#x2019;" horiz-adv-x="362" d="M238 909l202 494h222l-259 -494h-165z" />
<glyph unicode="&#x201a;" horiz-adv-x="327" d="M-90 -311l203 493h221l-258 -493h-166z" />
<glyph unicode="&#x201c;" horiz-adv-x="720" d="M233 909l259 494h165l-202 -494h-222zM594 909l258 494h166l-203 -494h-221z" />
<glyph unicode="&#x201d;" horiz-adv-x="722" d="M238 909l202 494h222l-259 -494h-165zM598 909l203 494h221l-258 -494h-166z" />
<glyph unicode="&#x201e;" horiz-adv-x="690" d="M-131 -317l258 493h166l-203 -493h-221zM270 -317l258 493h166l-202 -493h-222z" />
<glyph unicode="&#x2022;" horiz-adv-x="962" d="M340 211v577h512v-577h-512z" />
<glyph unicode="&#x2026;" horiz-adv-x="1280" d="M51 0l62 276h225l-62 -276h-225zM528 0l62 276h225l-61 -276h-226zM1006 0l61 276h225l-61 -276h-225z" />
<glyph unicode="&#x202f;" horiz-adv-x="389" />
<glyph unicode="&#x2039;" horiz-adv-x="495" d="M133 451l39 102l479 315l-63 -219l-248 -153l172 -174l-55 -201z" />
<glyph unicode="&#x203a;" horiz-adv-x="499" d="M78 121l63 219l248 154l-172 174l55 200l324 -329l-39 -103z" />
<glyph unicode="&#x205f;" horiz-adv-x="487" />
<glyph unicode="&#x20ac;" d="M195 397l41 176h86q14 98 34 175h-84l43 176h101q86 205 230.5 327.5t350.5 122.5q141 0 285 -39l49 -14l-51 -166q-135 29 -293 29q-207 0 -338 -260h479l-38 -176h-506q-25 -86 -37 -175h504l-41 -176h-475v-14q0 -213 196 -213q139 0 275 23l45 6l-17 -172 q-180 -50 -332 -50q-395 0 -395 390v30h-112z" />
<glyph unicode="&#x2122;" horiz-adv-x="1419" d="M442 1169v138h410v-138h-107v-489h-151v489h-152zM909 678v629h183l106 -369l115 369h180v-629h-141v401l-99 -364h-100l-102 364v-401h-142z" />
<glyph unicode="&#x25fc;" horiz-adv-x="1024" d="M0 0v1024h1024v-1024h-1024z" />
</font>
</defs>
</svg>
